Dio – Dio’s Inferno – The Last In Live (Promo)




No Cover available

Artist: Dio
Year: 1997
Genre: Metal
Notes: Discogs
Add. Notes: Promo
Watch Songs on: YouTube
Cover incl.: Yes
Encoder: FLAC
Bitrate: ~1000 kBit/s (44.1 kHz/16 Bit/s)
Log & Cue incl.: Yes/Yes
Size: 644,9 MB
Password: “slam” (without ” “)


All Downloads/Hosters are compatible

Download 1
KatFile.com
Turbobit.net
Rapidgator.net
FileFactory.com
Download 2
KatFile.com
Turbobit.net
Rapidgator.net
FileFactory.com

Tracklist:

Disc 1
1 Intro 1:36
2 Jesus, Mary And The Holy Ghost 3:27
3 Straight Through The Heart 5:27
4 Don't Talk To Strangers 6:02
5 Holy Diver 4:59
6 Drum Solo 4:01
7 Heaven And Hell 7:29
8 Double Monday 3:18
9 Stand Up And Shout 4:08
10 Hunter Of The Heart 5:15

Disc 2
1 Mistreated 10:11
2 Guitar Solo 3:38
3 The Last In Line 6:54
4 Rainbow In The Dark 4:56
5 Mob Rules 3:37
6 Man On The Silver Mountain 2:11
7 Long Live Rock'n'Roll 4:14
8 We Rock 5:40

EAC-Log, CUE-Sheed & NFO:

Click to open spoiler
Exact Audio Copy V1.0 beta 3 from 29. August 2011

EAC extraction logfile from 8. January 2013, 20:52

Dio / Dio’s Inferno – The Last In Live (CD 1)

Used drive : Optiarc DVD RW AD-7203S Adapter: 1 ID: 1

Read mode : Secure
Utilize accurate stream : Yes
Defeat audio cache : Yes
Make use of C2 pointers : No

Read offset correction : 48
Overread into Lead-In and Lead-Out : No
Fill up missing offset samples with silence : Yes
Delete leading and trailing silent blocks : No
Null samples used in CRC calculations : Yes
Used interface : Native Win32 interface for Win NT & 2000

Used output format : User Defined Encoder
Selected bitrate : 768 kBit/s
Quality : High
Add ID3 tag : No
Command line compressor : C:\Program Files (x86)\Exact Audio Copy\FLAC\FLAC.EXE
Additional command line options : -6 -V -T “ARTIST=%artist%” -T “TITLE=%title%” -T “ALBUM=%albumtitle%” -T “DATE=%year%” -T “TRACKNUMBER=%tracknr%” -T “GENRE=%genre%” -T “COMMENT=%comment%” -T “BAND=%albuminterpret%” -T “ALBUMARTIST=%albuminterpret%” -T “COMPOSER=%composer%” %haslyrics%–tag-from-file=LYRICS=”%lyricsfile%”%haslyrics% -T “DISCNUMBER=%cdnumber%” -T “TOTALDISCS=%totalcds%” -T “TOTALTRACKS=%numtracks%” %hascover%–picture=”%coverfile%”%hascover% %source% -o %dest%

TOC of the extracted CD

Track | Start | Length | Start sector | End sector
———————————————————
1 | 0:00.32 | 1:37.00 | 32 | 7306
2 | 1:37.32 | 3:27.58 | 7307 | 22889
3 | 5:05.15 | 5:47.40 | 22890 | 48954
4 | 10:52.55 | 6:02.62 | 48955 | 76166
5 | 16:55.42 | 4:59.48 | 76167 | 98639
6 | 21:55.15 | 4:01.47 | 98640 | 116761
7 | 25:56.62 | 7:29.38 | 116762 | 150474
8 | 33:26.25 | 3:18.20 | 150475 | 165344
9 | 36:44.45 | 4:08.35 | 165345 | 183979
10 | 40:53.05 | 5:16.27 | 183980 | 207706

Range status and errors

Selected range

Filename K:\Uploads\Dio – Dio’s Inferno – The Last In Live\Dio – Dio’s Inferno – The Last In Live (CD 1).wav

Peak level 94.4 %
Extraction speed 3.8 X
Range quality 100.0 %
Test CRC D3B45BA5
Copy CRC D3B45BA5
Copy OK

No errors occurred

AccurateRip summary

Track 1 accurately ripped (confidence 8) [71A0F3C3] (AR v2)
Track 2 accurately ripped (confidence 8) [8A4B6960] (AR v2)
Track 3 accurately ripped (confidence 8) [F3A959E5] (AR v2)
Track 4 accurately ripped (confidence 8) [FA994E20] (AR v2)
Track 5 accurately ripped (confidence 8) [3C66B4C4] (AR v2)
Track 6 accurately ripped (confidence 8) [8FEDE80B] (AR v2)
Track 7 accurately ripped (confidence 8) [A8AF5044] (AR v2)
Track 8 accurately ripped (confidence 8) [C6C8419A] (AR v2)
Track 9 accurately ripped (confidence 8) [867B3420] (AR v2)
Track 10 accurately ripped (confidence 8) [989E0280] (AR v2)

All tracks accurately ripped

End of status report

==== Log checksum 9D7B47A89A5AE9F581AB6CAE4C9784207DF85B51537E9406915744A1D4CF5CEE ====

Exact Audio Copy V1.0 beta 3 from 29. August 2011

EAC extraction logfile from 8. January 2013, 21:16

Dio / Dio’s Inferno – The Last In Live (CD 2)

Used drive : Optiarc DVD RW AD-7203S Adapter: 1 ID: 1

Read mode : Secure
Utilize accurate stream : Yes
Defeat audio cache : Yes
Make use of C2 pointers : No

Read offset correction : 48
Overread into Lead-In and Lead-Out : No
Fill up missing offset samples with silence : Yes
Delete leading and trailing silent blocks : No
Null samples used in CRC calculations : Yes
Used interface : Native Win32 interface for Win NT & 2000

Used output format : User Defined Encoder
Selected bitrate : 768 kBit/s
Quality : High
Add ID3 tag : No
Command line compressor : C:\Program Files (x86)\Exact Audio Copy\FLAC\FLAC.EXE
Additional command line options : -6 -V -T “ARTIST=%artist%” -T “TITLE=%title%” -T “ALBUM=%albumtitle%” -T “DATE=%year%” -T “TRACKNUMBER=%tracknr%” -T “GENRE=%genre%” -T “COMMENT=%comment%” -T “BAND=%albuminterpret%” -T “ALBUMARTIST=%albuminterpret%” -T “COMPOSER=%composer%” %haslyrics%–tag-from-file=LYRICS=”%lyricsfile%”%haslyrics% -T “DISCNUMBER=%cdnumber%” -T “TOTALDISCS=%totalcds%” -T “TOTALTRACKS=%numtracks%” %hascover%–picture=”%coverfile%”%hascover% %source% -o %dest%

TOC of the extracted CD

Track | Start | Length | Start sector | End sector
———————————————————
1 | 0:00.00 | 10:11.52 | 0 | 45876
2 | 10:11.52 | 3:38.38 | 45877 | 62264
3 | 13:50.15 | 6:54.15 | 62265 | 93329
4 | 20:44.30 | 4:56.00 | 93330 | 115529
5 | 25:40.30 | 3:37.07 | 115530 | 131811
6 | 29:17.37 | 2:11.13 | 131812 | 141649
7 | 31:28.50 | 4:14.05 | 141650 | 160704
8 | 35:42.55 | 5:40.67 | 160705 | 186271

Range status and errors

Selected range

Filename K:\Uploads\Dio – Dio’s Inferno – The Last In Live\Dio – Dio’s Inferno – The Last In Live (CD 2).wav

Peak level 94.4 %
Extraction speed 3.7 X
Range quality 100.0 %
Test CRC 483F0E91
Copy CRC 483F0E91
Copy OK

No errors occurred

AccurateRip summary

Track 1 accurately ripped (confidence 9) [70AC04BE] (AR v2)
Track 2 accurately ripped (confidence 9) [2D71BEF3] (AR v2)
Track 3 accurately ripped (confidence 9) [8474C7CF] (AR v2)
Track 4 accurately ripped (confidence 9) [EDB0F408] (AR v2)
Track 5 accurately ripped (confidence 9) [AD22831B] (AR v2)
Track 6 accurately ripped (confidence 9) [AA06C699] (AR v2)
Track 7 accurately ripped (confidence 9) [4049EFAB] (AR v2)
Track 8 accurately ripped (confidence 9) [C30D550B] (AR v2)

All tracks accurately ripped

End of status report

==== Log checksum B397459B4F2AACA22B54FC8F0E58ECB2BB0AEEC4B5E9154ED7674BB8C31998CA ====

REM GENRE “Heavy Metal”
REM DATE 1998
REM DISCID 790AD10A
REM COMMENT “ExactAudioCopy v1.0b3”
PERFORMER “Dio”
TITLE “Dio’s Inferno – The Last In Live (CD 1)”
FILE “Dio – Dio’s Inferno – The Last In Live (CD 1).flac” WAVE
TRACK 01 AUDIO
TITLE “Intro”
PERFORMER “Dio”
INDEX 00 00:00:00
INDEX 01 00:00:32
TRACK 02 AUDIO
TITLE “Jesus, Mary And The Holy Ghost”
PERFORMER “Dio”
INDEX 01 01:37:32
TRACK 03 AUDIO
TITLE “Straight Through The Heart”
PERFORMER “Dio”
INDEX 01 05:05:15
TRACK 04 AUDIO
TITLE “Don’t Talk To Strangers”
PERFORMER “Dio”
INDEX 01 10:52:55
TRACK 05 AUDIO
TITLE “Holy Diver”
PERFORMER “Dio”
INDEX 01 16:55:42
TRACK 06 AUDIO
TITLE “Drum Solo”
PERFORMER “Dio”
INDEX 01 21:55:15
TRACK 07 AUDIO
TITLE “Heaven And Hell”
PERFORMER “Dio”
INDEX 01 25:56:62
TRACK 08 AUDIO
TITLE “Double Monday”
PERFORMER “Dio”
INDEX 01 33:26:25
TRACK 09 AUDIO
TITLE “Stand Up And Shout”
PERFORMER “Dio”
INDEX 01 36:44:45
TRACK 10 AUDIO
TITLE “Hunter Of The Heart”
PERFORMER “Dio”
INDEX 01 40:53:05

REM GENRE “Heavy Metal”
REM DATE 1998
REM DISCID 6509B308
REM COMMENT “ExactAudioCopy v1.0b3”
PERFORMER “Dio”
TITLE “Dio’s Inferno – The Last In Live (CD 2)”
FILE “Dio – Dio’s Inferno – The Last In Live (CD 2).flac” WAVE
TRACK 01 AUDIO
TITLE “Mistreated”
PERFORMER “Dio”
INDEX 01 00:00:00
TRACK 02 AUDIO
TITLE “Guitar Solo”
PERFORMER “Dio”
INDEX 01 10:11:52
TRACK 03 AUDIO
TITLE “The Last In Line”
PERFORMER “Dio”
INDEX 01 13:50:15
TRACK 04 AUDIO
TITLE “Rainbow In The Dark”
PERFORMER “Dio”
INDEX 01 20:44:30
TRACK 05 AUDIO
TITLE “Mob Rules”
PERFORMER “Dio”
INDEX 01 25:40:30
TRACK 06 AUDIO
TITLE “Man On The Silver Mountain”
PERFORMER “Dio”
INDEX 01 29:17:37
TRACK 07 AUDIO
TITLE “Long Live Rock And Roll”
PERFORMER “Dio”
INDEX 01 31:28:50
TRACK 08 AUDIO
TITLE “We Rock”
PERFORMER “Dio”
INDEX 01 35:42:55


0

Publication author

offline 14 hours

Chaos

3
Comments: 4Publics: 3418Registration: 02-02-2019
Spread the Download

Leave a Reply

Your email address will not be published. Required fields are marked *

Enter the text from the image below
 

This site uses Akismet to reduce spam. Learn how your comment data is processed.