Dio – Dio’s Inferno: The Last In Live (Limited Japanese Edition)




[Total: 0    Average: 0/5]

Artist: Dio
Year: 1998
Genre: Metal
Notes: Discogs
Add. Notes: Limited Japanese Edition
Cover incl.: Yes
Encoder: FLAC
Bitrate: ~1000 kBit/s (44.1 kHz/16 Bit/s)
Log & Cue incl.: Yes
Size: 1004,48 MB
Password: “slam” (without ” “)


All Downloads/Hosters are compatible

Download 1
Share-online.biz
KatFile.com
Rapidgator.net
Download 2
Share-online.biz
KatFile.com
Rapidgator.net

Tracklist:

1-01 - Intro - 1:36
1-02 - Jesus, Mary And The Holy Ghost - 3:27
1-03 - Straight Through The Heart - 5:47
1-04 - Don't Talk To Strangers - 6:02
1-05 - Holy Diver - 4:59
1-06 - Drum Solo - 4:01
1-07 - Heaven And Hell - 7:29
1-08 - Double Monday - 3:18
1-09 - Stand Up And Shout - 4:08
1-10 - Hunter Of The Heart - 5:16

2-01 - Mistreated - Catch The Rainbow - 10:12
2-02 - Guitar Solo - 3:38
2-03 - The Last In Line - 6:54
2-04 - Rainbow In The Dark - 4:56
2-05 - The Mob Rules - 3:37
2-06 - Man On The Silver Mountain - 2:11
2-07 - Long Live Rock'N'Roll - 4:14
2-08 - We Rock - 5:40
2-09 - *After All (The Dead) - 6:27
2-10 - *I - 5:22
2-11 - *Interview With Ronnie James Dio - 2:55

EAC-Log, CUE-Sheed & NFO:

Click to open spoiler
Exact Audio Copy V0.99 prebeta 5 from 4. May 2009

EAC extraction logfile from 24. January 2013, 23:49

Dio / Inferno – Last in Live (Disc 1, TECW-35704)

Used drive : PLEXTOR DVDR PX-612U Adapter: 0 ID: 0

Read mode : Secure
Utilize accurate stream : Yes
Defeat audio cache : Yes
Make use of C2 pointers : No

Read offset correction : 6
Overread into Lead-In and Lead-Out : No
Fill up missing offset samples with silence : Yes
Delete leading and trailing silent blocks : No
Null samples used in CRC calculations : Yes
Used interface : Native Win32 interface for Win NT & 2000

Used output format : User Defined Encoder
Selected bitrate : 1024 kBit/s
Quality : High
Add ID3 tag : No
Command line compressor : C:\Program Files (x86)\Exact Audio Copy\Flac\flac.exe
Additional command line options : -T “DATE=%y” -T “GENRE=%m” -8 -V %s

TOC of the extracted CD

Track | Start | Length | Start sector | End sector
———————————————————
1 | 0:00.00 | 1:36.70 | 0 | 7269
2 | 1:36.70 | 3:27.50 | 7270 | 22844
3 | 5:04.45 | 5:47.50 | 22845 | 48919
4 | 10:52.20 | 6:02.52 | 48920 | 76121
5 | 16:54.72 | 4:59.55 | 76122 | 98601
6 | 21:54.52 | 4:01.45 | 98602 | 116721
7 | 25:56.22 | 7:29.35 | 116722 | 150431
8 | 33:25.57 | 3:18.18 | 150432 | 165299
9 | 36:44.00 | 4:08.40 | 165300 | 183939
10 | 40:52.40 | 5:16.10 | 183940 | 207649

Range status and errors

Selected range

Filename D:\Ripped By liveevil\Dio – Inferno – Last in Live (Disc 1, TECW-35704).wav

Peak level 99.3 %
Range quality 100.0 %
Test CRC 87D977FD
Copy CRC 87D977FD
Copy OK

No errors occurred

AccurateRip summary

Track 1 accurately ripped (confidence 2) [8574CB5A]
Track 2 accurately ripped (confidence 2) [0E342A43]
Track 3 accurately ripped (confidence 2) [B6AEF3ED]
Track 4 accurately ripped (confidence 2) [269F3FC8]
Track 5 accurately ripped (confidence 2) [DDAE00A3]
Track 6 accurately ripped (confidence 2) [E78DBA2D]
Track 7 accurately ripped (confidence 2) [1115B0B0]
Track 8 accurately ripped (confidence 2) [78FE2CBD]
Track 9 accurately ripped (confidence 2) [AB518C36]
Track 10 accurately ripped (confidence 2) [D3D1BA59]

All tracks accurately ripped

End of status report

Exact Audio Copy V0.99 prebeta 5 from 4. May 2009

EAC extraction logfile from 25. January 2013, 0:45

Dio / Inferno – Last in Live (Disc 2, TECW-35705)

Used drive : PLEXTOR DVDR PX-612U Adapter: 0 ID: 0

Read mode : Secure
Utilize accurate stream : Yes
Defeat audio cache : Yes
Make use of C2 pointers : No

Read offset correction : 6
Overread into Lead-In and Lead-Out : No
Fill up missing offset samples with silence : Yes
Delete leading and trailing silent blocks : No
Null samples used in CRC calculations : Yes
Used interface : Native Win32 interface for Win NT & 2000

Used output format : User Defined Encoder
Selected bitrate : 1024 kBit/s
Quality : High
Add ID3 tag : No
Command line compressor : C:\Program Files (x86)\Exact Audio Copy\Flac\flac.exe
Additional command line options : -T “DATE=%y” -T “GENRE=%m” -8 -V %s

TOC of the extracted CD

Track | Start | Length | Start sector | End sector
———————————————————
1 | 0:00.00 | 10:12.10 | 0 | 45909
2 | 10:12.10 | 3:38.35 | 45910 | 62294
3 | 13:50.45 | 6:54.12 | 62295 | 93356
4 | 20:44.57 | 4:56.08 | 93357 | 115564
5 | 25:40.65 | 3:37.02 | 115565 | 131841
6 | 29:17.67 | 2:11.13 | 131842 | 141679
7 | 31:29.05 | 4:14.15 | 141680 | 160744
8 | 35:43.20 | 5:42.14 | 160745 | 186408
9 | 41:25.34 | 6:29.71 | 186409 | 215654
10 | 47:55.30 | 5:25.55 | 215655 | 240084
11 | 53:21.10 | 6:04.25 | 240085 | 267409

Range status and errors

Selected range

Filename D:\Ripped By liveevil\Dio – Inferno – Last in Live (Disc 2, TECW-35705).wav

Peak level 99.3 %
Range quality 99.8 %
Test CRC D98FB1C3
Copy CRC D98FB1C3
Copy OK

No errors occurred

AccurateRip summary

Track 1 accurately ripped (confidence 2) [BB751C33]
Track 2 accurately ripped (confidence 2) [4151B84D]
Track 3 accurately ripped (confidence 2) [366586D6]
Track 4 accurately ripped (confidence 2) [F60258FF]
Track 5 accurately ripped (confidence 2) [3843A759]
Track 6 accurately ripped (confidence 2) [A1818011]
Track 7 accurately ripped (confidence 2) [62A01474]
Track 8 accurately ripped (confidence 2) [57512FC8]
Track 9 accurately ripped (confidence 2) [C84CE80B]
Track 10 accurately ripped (confidence 2) [D4028E03]
Track 11 accurately ripped (confidence 2) [68D52CD1]

All tracks accurately ripped

End of status report

REM GENRE “Heavy Metal”
REM DATE 1998
REM DISCID 730AD00A
REM COMMENT “ExactAudioCopy v0.99pb5”
PERFORMER “Dio”
TITLE “Inferno – Last in Live (Disc 1, TECW-35704)”
FILE “Dio – Inferno – Last in Live (Disc 1, TECW-35704).flac” WAVE
TRACK 01 AUDIO
TITLE “Intro”
PERFORMER “Dio”
INDEX 01 00:00:00
TRACK 02 AUDIO
TITLE “Jesus, Mary & Holy Ghost”
PERFORMER “Dio”
INDEX 01 01:36:70
TRACK 03 AUDIO
TITLE “Straight Through the Heart”
PERFORMER “Dio”
INDEX 01 05:04:45
TRACK 04 AUDIO
TITLE “Don’t Talk To Strangers”
PERFORMER “Dio”
INDEX 01 10:52:20
TRACK 05 AUDIO
TITLE “Holy Diver”
PERFORMER “Dio”
INDEX 01 16:54:72
TRACK 06 AUDIO
TITLE “Drum Solo”
PERFORMER “Dio”
INDEX 01 21:54:52
TRACK 07 AUDIO
TITLE “Heaven And Hell”
PERFORMER “Dio”
INDEX 01 25:56:22
TRACK 08 AUDIO
TITLE “Double Monday”
PERFORMER “Dio”
INDEX 01 33:25:57
TRACK 09 AUDIO
TITLE “Stand Up And Shout”
PERFORMER “Dio”
INDEX 01 36:44:00
TRACK 10 AUDIO
TITLE “Hunter Of The Heart”
PERFORMER “Dio”
INDEX 01 40:52:40

REM GENRE “Heavy Metal”
REM DATE 1998
REM DISCID 9D0DED0B
REM COMMENT “ExactAudioCopy v0.99pb5”
PERFORMER “Dio”
TITLE “Inferno – Last in Live (Disc 2, TECW-35705)”
FILE “Dio – Inferno – Last in Live (Disc 2, TECW-35705).flac” WAVE
TRACK 01 AUDIO
TITLE “Mistreated / Catch The Rainbow”
PERFORMER “Dio”
INDEX 01 00:00:00
TRACK 02 AUDIO
TITLE “Guitar Solo”
PERFORMER “Dio”
INDEX 01 10:12:10
TRACK 03 AUDIO
TITLE “The Last In Line”
PERFORMER “Dio”
INDEX 01 13:50:45
TRACK 04 AUDIO
TITLE “Rainbow In The Dark”
PERFORMER “Dio”
INDEX 01 20:44:57
TRACK 05 AUDIO
TITLE “The Mob Rules”
PERFORMER “Dio”
INDEX 01 25:40:65
TRACK 06 AUDIO
TITLE “Man On The Silver Mountain”
PERFORMER “Dio”
INDEX 01 29:17:67
TRACK 07 AUDIO
TITLE “Long Live Rock ‘N’ Roll”
PERFORMER “Dio”
INDEX 01 31:29:05
TRACK 08 AUDIO
TITLE “We Rock”
PERFORMER “Dio”
INDEX 01 35:43:20
TRACK 09 AUDIO
TITLE “After All (The Dead)”
PERFORMER “Dio”
INDEX 00 41:24:07
INDEX 01 41:25:34
TRACK 10 AUDIO
TITLE “I”
PERFORMER “Dio”
INDEX 00 47:53:12
INDEX 01 47:55:30
TRACK 11 AUDIO
TITLE “Interview With Ronnie James Dio”
PERFORMER “Dio”
INDEX 00 53:18:27
INDEX 01 53:21:10
INDEX 02 54:29:25
INDEX 03 55:30:42
INDEX 04 57:02:25
INDEX 05 58:42:22
INDEX 06 59:10:27


Spread the Download

Leave a Reply

Your email address will not be published. Required fields are marked *

Enter the text from the image below
 

This site uses Akismet to reduce spam. Learn how your comment data is processed.