Dio – Diamonds – The Best Of Dio




Artist: Dio
Year: 1992
Genre: Rock
Notes: Discogs
Add. Notes:
Cover incl.: Yes
Encoder: FLAC
Bitrate: ~900 kBit/s (44.1 kHz/16 Bit/s)
Log & Cue incl.: Yes
Size: 453,9 MB
Password: “slam” (without ” “)


All Downloads/Hosters are compatible

Download 1
KatFile.com
Turbobit.net
Rapidgator.net
Usersdrive.com
Download 2
KatFile.com
Turbobit.net
Rapidgator.net
Usersdrive.com

Tracklist:

1 - Holy Diver - 5:51
2 - Rainbow In The Dark - 4:15
3 - Don't Talk To Strangers - 4:53
4 - We Rock - 4:32
5 - The Last In Line - 5:44
6 - Evil Eyes - 3:36
7 - Rock 'N' Roll Children - 4:31
8 - Sacred Heart - 6:24
9 - Hungry For Heaven - 4:09
10 - Hide In The Rainbow - 4:04
11 - Dream Evil - 4:24
12 - Wild One - 4:01
13 - Lock Up The Wolves - 8:30

EAC-Log, CUE-Sheed & NFO:

Click to open spoiler
Exact Audio Copy V0.99 prebeta 5 from 4. May 2009

EAC extraction logfile from 19. January 2013, 22:31

Dio / Diamonds – The Best Of Dio (512 206-2)

Used drive : Optiarc BD RW BD-5740H Adapter: 0 ID: 0

Read mode : Secure
Utilize accurate stream : Yes
Defeat audio cache : Yes
Make use of C2 pointers : No

Read offset correction : 48
Overread into Lead-In and Lead-Out : No
Fill up missing offset samples with silence : Yes
Delete leading and trailing silent blocks : No
Null samples used in CRC calculations : Yes
Used interface : Native Win32 interface for Win NT & 2000

Used output format : User Defined Encoder
Selected bitrate : 1024 kBit/s
Quality : High
Add ID3 tag : No
Command line compressor : C:\Program Files (x86)\Exact Audio Copy\Flac\flac.exe
Additional command line options : -T “DATE=%y” -T “GENRE=%m” -8 -V %s

TOC of the extracted CD

Track | Start | Length | Start sector | End sector
———————————————————
1 | 0:00.00 | 5:54.40 | 0 | 26589
2 | 5:54.40 | 4:16.47 | 26590 | 45836
3 | 10:11.12 | 4:53.73 | 45837 | 67884
4 | 15:05.10 | 4:35.50 | 67885 | 88559
5 | 19:40.60 | 5:47.30 | 88560 | 114614
6 | 25:28.15 | 3:38.20 | 114615 | 130984
7 | 29:06.35 | 4:32.67 | 130985 | 151451
8 | 33:39.27 | 6:28.15 | 151452 | 180566
9 | 40:07.42 | 4:11.65 | 180567 | 199456
10 | 44:19.32 | 4:06.58 | 199457 | 217964
11 | 48:26.15 | 4:29.17 | 217965 | 238156
12 | 52:55.32 | 4:03.10 | 238157 | 256391
13 | 56:58.42 | 8:34.03 | 256392 | 294944

Range status and errors

Selected range

Filename D:\Ripped By liveevil\Dio – Diamonds – The Best Of Dio (512 206-2).wav

Peak level 100.0 %
Range quality 100.0 %
Test CRC 89C8C53F
Copy CRC 89C8C53F
Copy OK

No errors occurred

AccurateRip summary

Track 1 accurately ripped (confidence 60) [76C132EF]
Track 2 accurately ripped (confidence 58) [3AFDCD35]
Track 3 accurately ripped (confidence 58) [06722EFA]
Track 4 accurately ripped (confidence 58) [8924697D]
Track 5 accurately ripped (confidence 60) [4378C433]
Track 6 accurately ripped (confidence 57) [59BFE747]
Track 7 accurately ripped (confidence 58) [0EFB63A8]
Track 8 accurately ripped (confidence 55) [884DAF58]
Track 9 accurately ripped (confidence 59) [5F8229F7]
Track 10 accurately ripped (confidence 57) [6F1BD6B4]
Track 11 accurately ripped (confidence 57) [E5C737D0]
Track 12 accurately ripped (confidence 57) [0A81B510]
Track 13 accurately ripped (confidence 57) [427878D2]

All tracks accurately ripped

End of status report

REM GENRE “Heavy Metal”
REM DATE 1992
REM DISCID A40F5C0D
REM COMMENT “ExactAudioCopy v0.99pb5”
PERFORMER “Dio”
TITLE “Diamonds – The Best Of Dio (512 206-2)”
FILE “Dio – Diamonds – The Best Of Dio (512 206-2).flac” WAVE
TRACK 01 AUDIO
TITLE “Holy Diver”
PERFORMER “Dio”
INDEX 01 00:00:00
TRACK 02 AUDIO
TITLE “Rainbow In The Dark”
PERFORMER “Dio”
INDEX 00 05:54:22
INDEX 01 05:54:40
TRACK 03 AUDIO
TITLE “Don’t Talk To Strangers”
PERFORMER “Dio”
INDEX 00 10:09:45
INDEX 01 10:11:12
TRACK 04 AUDIO
TITLE “We Rock”
PERFORMER “Dio”
INDEX 00 15:04:07
INDEX 01 15:05:10
TRACK 05 AUDIO
TITLE “The Last In Line”
PERFORMER “Dio”
INDEX 00 19:40:22
INDEX 01 19:40:60
TRACK 06 AUDIO
TITLE “Evil Eyes”
PERFORMER “Dio”
INDEX 00 25:26:67
INDEX 01 25:28:15
TRACK 07 AUDIO
TITLE “Rock ‘n’ Roll Children”
PERFORMER “Dio”
INDEX 00 29:05:50
INDEX 01 29:06:35
TRACK 08 AUDIO
TITLE “Sacred Heart”
PERFORMER “Dio”
INDEX 00 33:38:47
INDEX 01 33:39:27
TRACK 09 AUDIO
TITLE “Hungry For Heaven”
PERFORMER “Dio”
INDEX 00 40:06:72
INDEX 01 40:07:42
TRACK 10 AUDIO
TITLE “Hide In The Rainbow”
PERFORMER “Dio”
INDEX 00 44:18:70
INDEX 01 44:19:32
TRACK 11 AUDIO
TITLE “Dream Evil”
PERFORMER “Dio”
INDEX 00 48:26:00
INDEX 01 48:26:15
TRACK 12 AUDIO
TITLE “Wild One”
PERFORMER “Dio”
INDEX 00 52:54:10
INDEX 01 52:55:32
TRACK 13 AUDIO
TITLE “Lock Up The Wolves”
PERFORMER “Dio”
INDEX 00 56:58:27
INDEX 01 56:58:42


Leave a Reply

Your email address will not be published. Required fields are marked *

Enter the text from the image below
 

This site uses Akismet to reduce spam. Learn how your comment data is processed.