Dio – At Donington UK: Live 1983 & 1987 (Remastered)




[Total: 0    Average: 0/5]

Artist: Dio
Year: 2010
Genre: Metal
Notes: Discogs
Add. Notes: Remastered
Cover incl.: Yes
Encoder: FLAC
Bitrate: ~1000 kBit/s (44.1 kHz/16 Bit/s)
Log & Cue incl.: Yes
Size: 714,51 MB
Password: “slam” (without ” “)


All Downloads/Hosters are compatible

Download 1
Share-online.biz
KatFile.com
Rapidgator.net
Download 2
Share-online.biz
KatFile.com
Rapidgator.net

Tracklist:

1983
1-1. Stand Up And Shout 	
1-2. Straight Through The Heart 	
1-3. Children Of The Sea 	
1-4. Rainbow In The Dark 	
1-5. Holy Diver 	
1-6. Drum Solo 	
1-7. Stargazer 	
1-8. Guitar Solo 	
1-9. Heaven And Hell 	
1-10. Man On The Silver Mountain 	
1-11. Starstruck 	
1-12. Man On The Silver Mountain (Reprise) 	
1987
2-1. Dream Evil 	
2-2. Neon Nights 	
2-3. Naked In The Rain 	
2-4. Rock And Roll Children 	
2-5. Long Live Rock And Roll 	
2-6. The Last In Line 	
2-7. Children Of The Sea 	
2-8. Holy Diver 	
2-9. Heaven And Hell 	
2-10. Man On The Silver Mountain 	
2-11. All The Fools Sailed Away 	
2-12. The Last In Line (Reprise) 	
2-13. Rainbow In The Dark

EAC-Log, CUE-Sheed & NFO:

Click to open spoiler
Exact Audio Copy V1.0 beta 3 from 29. August 2011

EAC extraction logfile from 9. January 2013, 12:40

Dio / Dio Live at Donnington UK- CD1- Live 1983

Used drive : Optiarc DVD RW AD-7203S Adapter: 1 ID: 1

Read mode : Secure
Utilize accurate stream : Yes
Defeat audio cache : Yes
Make use of C2 pointers : No

Read offset correction : 48
Overread into Lead-In and Lead-Out : No
Fill up missing offset samples with silence : Yes
Delete leading and trailing silent blocks : No
Null samples used in CRC calculations : Yes
Used interface : Native Win32 interface for Win NT & 2000

Used output format : User Defined Encoder
Selected bitrate : 768 kBit/s
Quality : High
Add ID3 tag : No
Command line compressor : C:\Program Files (x86)\Exact Audio Copy\FLAC\FLAC.EXE
Additional command line options : -6 -V -T “ARTIST=%artist%” -T “TITLE=%title%” -T “ALBUM=%albumtitle%” -T “DATE=%year%” -T “TRACKNUMBER=%tracknr%” -T “GENRE=%genre%” -T “COMMENT=%comment%” -T “BAND=%albuminterpret%” -T “ALBUMARTIST=%albuminterpret%” -T “COMPOSER=%composer%” %haslyrics%–tag-from-file=LYRICS=”%lyricsfile%”%haslyrics% -T “DISCNUMBER=%cdnumber%” -T “TOTALDISCS=%totalcds%” -T “TOTALTRACKS=%numtracks%” %hascover%–picture=”%coverfile%”%hascover% %source% -o %dest%

TOC of the extracted CD

Track | Start | Length | Start sector | End sector
———————————————————
1 | 0:00.00 | 3:49.65 | 0 | 17239
2 | 3:49.65 | 4:49.17 | 17240 | 38931
3 | 8:39.07 | 6:15.72 | 38932 | 67128
4 | 14:55.04 | 4:38.14 | 67129 | 87992
5 | 19:33.18 | 5:08.66 | 87993 | 111158
6 | 24:42.09 | 0:41.31 | 111159 | 114264
7 | 25:23.40 | 1:42.44 | 114265 | 121958
8 | 27:06.09 | 1:38.72 | 121959 | 129380
9 | 28:45.06 | 11:05.55 | 129381 | 179310
10 | 39:50.61 | 3:32.57 | 179311 | 195267
11 | 43:23.43 | 0:47.00 | 195268 | 198792
12 | 44:10.43 | 2:29.54 | 198793 | 210021

Range status and errors

Selected range

Filename K:\Uploads\Dio At Donnington UK- Live 1983 & 1987\Dio – Dio Live at Donnington UK- CD1- Live 1983.wav

Peak level 98.8 %
Extraction speed 3.7 X
Range quality 100.0 %
Test CRC 58A08161
Copy CRC 58A08161
Copy OK

No errors occurred

AccurateRip summary

Track 1 accurately ripped (confidence 4) [15EA944A] (AR v2)
Track 2 accurately ripped (confidence 4) [FA738180] (AR v2)
Track 3 accurately ripped (confidence 4) [DC6456AE] (AR v2)
Track 4 accurately ripped (confidence 4) [AB414D0F] (AR v2)
Track 5 accurately ripped (confidence 4) [FC9DC475] (AR v2)
Track 6 accurately ripped (confidence 4) [065F44E8] (AR v2)
Track 7 accurately ripped (confidence 4) [0047E645] (AR v2)
Track 8 accurately ripped (confidence 4) [7A79F242] (AR v2)
Track 9 accurately ripped (confidence 4) [3A6D1B33] (AR v2)
Track 10 accurately ripped (confidence 4) [503B3FD8] (AR v2)
Track 11 accurately ripped (confidence 4) [6AF030F9] (AR v2)
Track 12 accurately ripped (confidence 4) [6A9553AC] (AR v2)

All tracks accurately ripped

End of status report

==== Log checksum 5060172D1C5A2CD2B4B43BCFDBEE4BC6856F93497D66BE5222F36412B17A80DE ====

Exact Audio Copy V1.0 beta 3 from 29. August 2011

EAC extraction logfile from 9. January 2013, 18:05

Dio / Dio Live at Donnington UK- CD2- Live 1987

Used drive : Optiarc DVD RW AD-7203S Adapter: 1 ID: 1

Read mode : Secure
Utilize accurate stream : Yes
Defeat audio cache : Yes
Make use of C2 pointers : No

Read offset correction : 48
Overread into Lead-In and Lead-Out : No
Fill up missing offset samples with silence : Yes
Delete leading and trailing silent blocks : No
Null samples used in CRC calculations : Yes
Used interface : Native Win32 interface for Win NT & 2000

Used output format : User Defined Encoder
Selected bitrate : 768 kBit/s
Quality : High
Add ID3 tag : No
Command line compressor : C:\Program Files (x86)\Exact Audio Copy\FLAC\FLAC.EXE
Additional command line options : -6 -V -T “ARTIST=%artist%” -T “TITLE=%title%” -T “ALBUM=%albumtitle%” -T “DATE=%year%” -T “TRACKNUMBER=%tracknr%” -T “GENRE=%genre%” -T “COMMENT=%comment%” -T “BAND=%albuminterpret%” -T “ALBUMARTIST=%albuminterpret%” -T “COMPOSER=%composer%” %haslyrics%–tag-from-file=LYRICS=”%lyricsfile%”%haslyrics% -T “DISCNUMBER=%cdnumber%” -T “TOTALDISCS=%totalcds%” -T “TOTALTRACKS=%numtracks%” %hascover%–picture=”%coverfile%”%hascover% %source% -o %dest%

TOC of the extracted CD

Track | Start | Length | Start sector | End sector
———————————————————
1 | 0:00.00 | 4:56.05 | 0 | 22204
2 | 4:56.05 | 4:43.73 | 22205 | 43502
3 | 9:40.03 | 7:28.58 | 43503 | 77160
4 | 17:08.61 | 2:46.57 | 77161 | 89667
5 | 19:55.43 | 4:39.19 | 89668 | 110611
6 | 24:34.62 | 4:12.09 | 110612 | 129520
7 | 28:46.71 | 1:22.11 | 129521 | 135681
8 | 30:09.07 | 1:27.56 | 135682 | 142262
9 | 31:36.63 | 3:18.26 | 142263 | 157138
10 | 34:55.14 | 4:28.66 | 157139 | 177304
11 | 39:24.05 | 4:23.15 | 177305 | 197044
12 | 43:47.20 | 1:11.62 | 197045 | 202431
13 | 44:59.07 | 5:11.60 | 202432 | 225816

Range status and errors

Selected range

Filename K:\Uploads\Dio At Donnington UK- Live 1983 & 1987\Dio – Dio Live at Donnington UK- CD2- Live 1987.wav

Peak level 98.8 %
Extraction speed 3.8 X
Range quality 99.9 %
Test CRC B659CFE4
Copy CRC B659CFE4
Copy OK

No errors occurred

AccurateRip summary

Track 1 accurately ripped (confidence 7) [704534BD] (AR v2)
Track 2 accurately ripped (confidence 7) [968362AF] (AR v2)
Track 3 accurately ripped (confidence 7) [03EB5747] (AR v2)
Track 4 accurately ripped (confidence 7) [7DF109BB] (AR v2)
Track 5 accurately ripped (confidence 7) [7CFFAB3B] (AR v2)
Track 6 accurately ripped (confidence 7) [386D742C] (AR v2)
Track 7 accurately ripped (confidence 7) [1FAF88B9] (AR v2)
Track 8 accurately ripped (confidence 7) [AE68F313] (AR v2)
Track 9 accurately ripped (confidence 7) [B5B369BB] (AR v2)
Track 10 accurately ripped (confidence 7) [84CAACAC] (AR v2)
Track 11 accurately ripped (confidence 7) [130EFABD] (AR v2)
Track 12 accurately ripped (confidence 7) [210A5F52] (AR v2)
Track 13 accurately ripped (confidence 7) [F76EBCE1] (AR v2)

All tracks accurately ripped

End of status report

==== Log checksum 722883BFDCE3934ABB0B9CC80F333792A973154933C7E58887B0157C9472CD8A ====

REM GENRE “Heavy Metal”
REM DATE 2010
REM DISCID A20AF00C
REM COMMENT “ExactAudioCopy v1.0b3”
PERFORMER “Dio”
TITLE “Dio Live at Donnington UK- CD1- Live 1983”
FILE “Dio – Dio Live at Donnington UK- CD1- Live 1983.flac” WAVE
TRACK 01 AUDIO
TITLE “Stand Up and Shout”
PERFORMER “Stand Up and Shout”
INDEX 01 00:00:00
TRACK 02 AUDIO
TITLE “Straight Through the Heart”
PERFORMER “Straight Through the Heart”
INDEX 01 03:49:65
TRACK 03 AUDIO
TITLE “Children of the Sea”
PERFORMER “Children of the Sea”
INDEX 01 08:39:07
TRACK 04 AUDIO
TITLE “Rainbow in the Dark”
PERFORMER “Rainbow in the Dark”
INDEX 01 14:55:04
TRACK 05 AUDIO
TITLE “Holy Diver”
PERFORMER “Holy Diver”
INDEX 01 19:33:18
TRACK 06 AUDIO
TITLE “Drum Solo”
PERFORMER “Drum Solo”
INDEX 01 24:42:09
TRACK 07 AUDIO
TITLE “Stargazer”
PERFORMER “Stargazer”
INDEX 01 25:23:40
TRACK 08 AUDIO
TITLE “Guitar Solo”
PERFORMER “Guitar Solo”
INDEX 01 27:06:09
TRACK 09 AUDIO
TITLE “Heaven and Hell ‘Long Live Version'”
PERFORMER “Heaven and Hell ‘Long Live Version'”
INDEX 01 28:45:06
TRACK 10 AUDIO
TITLE “Man on the Sliver Mountain”
PERFORMER “Man on the Sliver Mountain”
INDEX 01 39:50:61
TRACK 11 AUDIO
TITLE “Starstruck”
PERFORMER “Starstruck”
INDEX 01 43:23:43
TRACK 12 AUDIO
TITLE “Man on the Silver Mountain Reprise”
PERFORMER “Man on the Silver Mountain Reprise”
INDEX 01 44:10:43

REM GENRE “Heavy Metal”
REM DATE 2010
REM DISCID C30BC20D
REM COMMENT “ExactAudioCopy v1.0b3”
PERFORMER “Dio”
TITLE “Dio Live at Donnington UK- CD2- Live 1987”
FILE “Dio – Dio Live at Donnington UK- CD2- Live 1987.flac” WAVE
TRACK 01 AUDIO
TITLE “Dream Evil”
PERFORMER “Dio”
INDEX 01 00:00:00
TRACK 02 AUDIO
TITLE “Neon Knights”
PERFORMER “Dio”
INDEX 01 04:56:05
TRACK 03 AUDIO
TITLE “Naked in the Rain”
PERFORMER “Dio”
INDEX 01 09:40:03
TRACK 04 AUDIO
TITLE “Rock and Roll Children”
PERFORMER “Dio”
INDEX 01 17:08:61
TRACK 05 AUDIO
TITLE “Long Live Rock and Roll”
PERFORMER “Dio”
INDEX 01 19:55:43
TRACK 06 AUDIO
TITLE “The Last in Line”
PERFORMER “Dio”
INDEX 01 24:34:62
TRACK 07 AUDIO
TITLE “Children of the Sea”
PERFORMER “Dio”
INDEX 01 28:46:71
TRACK 08 AUDIO
TITLE “Holy Diver”
PERFORMER “Dio”
INDEX 01 30:09:07
TRACK 09 AUDIO
TITLE “Heaven and Hell”
PERFORMER “Dio”
INDEX 01 31:36:63
TRACK 10 AUDIO
TITLE “Man on the Silver Mountain”
PERFORMER “Dio”
INDEX 01 34:55:14
TRACK 11 AUDIO
TITLE “All the Fools Sailed Away”
PERFORMER “Dio”
INDEX 01 39:24:05
TRACK 12 AUDIO
TITLE “Last in Line Reprise”
PERFORMER “Dio”
INDEX 01 43:47:20
TRACK 13 AUDIO
TITLE “Rainbow in the Dark”
PERFORMER “Dio”
INDEX 01 44:59:07


Spread the Download

Leave a Reply

Your email address will not be published. Required fields are marked *

Enter the text from the image below
 

This site uses Akismet to reduce spam. Learn how your comment data is processed.