Dio – Anthology




Artist: Dio
Year: 1997
Genre: Metal
Notes: Discogs
Add. Notes:
Cover incl.: Yes
Encoder: FLAC
Bitrate: ~900 kBit/s (44.1 kHz/16 Bit/s)
Log & Cue incl.: Yes
Size: 488,11 MB
Password: “slam” (without ” “)


All Downloads/Hosters are compatible

Download 1
Turbobit.net
KatFile.com
Rapidgator.net
Download 2
Turbobit.net
KatFile.com
Rapidgator.net

Tracklist:

1. Holy Diver
2. Rainbow In The Dark
3. Stand Up And Shout
4. Straight Through The Heart
5. Last In Line
6. One Night In The City
7. We Rock
8. Egypt (The Chains Are On)
9. Shoot Shoot
10. Time To Burn
11. All The Fools Sailed Away
12. I Could Have Been A Dreamer
13. Sunset Superman
14. Shame On The Night

EAC-Log, CUE-Sheed & NFO:

Click to open spoiler
Exact Audio Copy V1.0 beta 3 from 29. August 2011

EAC extraction logfile from 6. April 2013, 9:18

Dio / Anthology (VSOP CD 245)

Used drive : TEAC DV-W28EA Adapter: 0 ID: 1

Read mode : Secure
Utilize accurate stream : Yes
Defeat audio cache : Yes
Make use of C2 pointers : No

Read offset correction : 102
Overread into Lead-In and Lead-Out : No
Fill up missing offset samples with silence : Yes
Delete leading and trailing silent blocks : No
Null samples used in CRC calculations : Yes
Used interface : Native Win32 interface for Win NT & 2000

Used output format : Internal WAV Routines
Sample format : 44.100 Hz; 16 Bit; Stereo

TOC of the extracted CD

Track | Start | Length | Start sector | End sector
———————————————————
1 | 0:00.00 | 5:53.22 | 0 | 26496
2 | 5:53.22 | 4:14.70 | 26497 | 45616
3 | 10:08.17 | 3:17.40 | 45617 | 60431
4 | 13:25.57 | 4:32.53 | 60432 | 80884
5 | 17:58.35 | 5:45.60 | 80885 | 106819
6 | 23:44.20 | 5:17.20 | 106820 | 130614
7 | 29:01.40 | 4:35.15 | 130615 | 151254
8 | 33:36.55 | 7:00.30 | 151255 | 182784
9 | 40:37.10 | 4:16.57 | 182785 | 202041
10 | 44:53.67 | 4:26.00 | 202042 | 221991
11 | 49:19.67 | 7:11.63 | 221992 | 254379
12 | 56:31.55 | 4:43.40 | 254380 | 275644
13 | 61:15.20 | 5:47.22 | 275645 | 301691
14 | 67:02.42 | 5:20.50 | 301692 | 325741

Range status and errors

Selected range

Filename H:\bigggwest\Dio – Anthology (VSOP CD 245).wav

Peak level 100.0 %
Extraction speed 2.4 X
Range quality 99.9 %
Test CRC B94C6B5F
Copy CRC B94C6B5F
Copy OK

No errors occurred

AccurateRip summary

Track 1 accurately ripped (confidence 2) [0C1BF60C] (AR v1)
Track 2 accurately ripped (confidence 2) [27DA8C93] (AR v1)
Track 3 accurately ripped (confidence 2) [581C2C8F] (AR v1)
Track 4 accurately ripped (confidence 2) [114DD5FD] (AR v1)
Track 5 accurately ripped (confidence 2) [2046D1BF] (AR v1)
Track 6 accurately ripped (confidence 2) [9E31A443] (AR v1)
Track 7 accurately ripped (confidence 2) [3FA293E1] (AR v1)
Track 8 accurately ripped (confidence 2) [6150BE81] (AR v1)
Track 9 accurately ripped (confidence 2) [EF0FEE12] (AR v1)
Track 10 accurately ripped (confidence 2) [2A182438] (AR v1)
Track 11 accurately ripped (confidence 2) [BABA5747] (AR v1)
Track 12 accurately ripped (confidence 2) [26A8C386] (AR v1)
Track 13 accurately ripped (confidence 2) [153F6EED] (AR v1)
Track 14 accurately ripped (confidence 2) [E950535B] (AR v1)

All tracks accurately ripped

End of status report

==== Log checksum EF81DD4040F65AC957B892AAABEE7D0DE1C96252921A226AEE7B942E3B5460D6 ====

REM GENRE “Heavy Metal”
REM DATE 1997
REM DISCID C210F70E
REM COMMENT “ExactAudioCopy v1.0b3”
CATALOG 0000000000000
PERFORMER “Dio”
TITLE “Anthology (VSOP CD 245)”
FILE “Dio – Anthology (VSOP CD 245).flac” WAVE
TRACK 01 AUDIO
TITLE “Holy Diver”
PERFORMER “Dio”
INDEX 01 00:00:00
TRACK 02 AUDIO
TITLE “Rainbow In The Dark”
PERFORMER “Dio”
INDEX 01 05:53:22
TRACK 03 AUDIO
TITLE “Stand Up And Shout”
PERFORMER “Dio”
INDEX 01 10:08:17
TRACK 04 AUDIO
TITLE “Straight Through The Heart”
PERFORMER “Dio”
INDEX 01 13:25:57
TRACK 05 AUDIO
TITLE “Last In Line”
PERFORMER “Dio”
INDEX 01 17:58:35
TRACK 06 AUDIO
TITLE “One Night In The City”
PERFORMER “Dio”
INDEX 01 23:44:20
TRACK 07 AUDIO
TITLE “We Rock”
PERFORMER “Dio”
INDEX 01 29:01:40
TRACK 08 AUDIO
TITLE “Egypt (The Chains Are On)”
PERFORMER “Dio”
INDEX 01 33:36:55
TRACK 09 AUDIO
TITLE “Shoot Shoot”
PERFORMER “Dio”
INDEX 01 40:37:10
TRACK 10 AUDIO
TITLE “Time To Burn”
PERFORMER “Dio”
INDEX 01 44:53:67
TRACK 11 AUDIO
TITLE “All The Fools Sailed Away”
PERFORMER “Dio”
INDEX 01 49:19:67
TRACK 12 AUDIO
TITLE “I Could Have Been A Dreamer”
PERFORMER “Dio”
INDEX 01 56:31:55
TRACK 13 AUDIO
TITLE “Sunset Superman”
PERFORMER “Dio”
INDEX 01 61:15:20
TRACK 14 AUDIO
TITLE “Shame On The Night”
PERFORMER “Dio”
INDEX 00 67:01:57
INDEX 01 67:02:42


Leave a Reply

Your email address will not be published. Required fields are marked *

This site uses Akismet to reduce spam. Learn how your comment data is processed.