Dio – Anthology Volume Two




Artist: Dio
Year: 2001
Genre: Metal
Notes: Discogs
Add. Notes:
Cover incl.: Yes
Encoder: FLAC
Bitrate: ~1000 kBit/s (44.1 kHz/16 Bit/s)
Log & Cue incl.: Yes
Size: 519 MB
Password: “slam” (without ” “)


All Downloads/Hosters are compatible

Download 1
KatFile.com
Rapidgator.net
Turbobit.net
FileFactory.com
Download 2
KatFile.com
Rapidgator.net
Turbobit.net
FileFactory.com

Tracklist:

1. Don't Talk To Strangers
2. Gypsy
3. Invisible
4. Evil Eyes
5. Mystery
6. Rock And Roll Children
7. Hungry For Heaven
8. Dream Evil
9. Naked In The Rain
10. Hey Angel
11. Between Two Hearts
12. Lock Up The Wolves
13. Rainbow In The Dark (Live)
14. Long Live Rock And Roll (Live)
15. We Rock (Live)

EAC-Log, CUE-Sheed & NFO:

Click to open spoiler
Exact Audio Copy V1.0 beta 3 from 29. August 2011

EAC extraction logfile from 16. April 2013, 14:28

Dio / Anthology Volume Two (VSOP CD 338)

Used drive : TEAC DV-W28EA Adapter: 0 ID: 1

Read mode : Secure
Utilize accurate stream : Yes
Defeat audio cache : Yes
Make use of C2 pointers : No

Read offset correction : 102
Overread into Lead-In and Lead-Out : No
Fill up missing offset samples with silence : Yes
Delete leading and trailing silent blocks : No
Null samples used in CRC calculations : Yes
Used interface : Native Win32 interface for Win NT & 2000

Used output format : Internal WAV Routines
Sample format : 44.100 Hz; 16 Bit; Stereo

TOC of the extracted CD

Track | Start | Length | Start sector | End sector
———————————————————
1 | 0:00.00 | 4:51.56 | 0 | 21880
2 | 4:51.56 | 3:39.08 | 21881 | 38313
3 | 8:30.64 | 5:24.49 | 38314 | 62662
4 | 13:55.38 | 3:36.45 | 62663 | 78907
5 | 17:32.08 | 3:56.67 | 78908 | 96674
6 | 21:29.00 | 4:30.24 | 96675 | 116948
7 | 25:59.24 | 4:12.23 | 116949 | 135871
8 | 30:11.47 | 4:23.62 | 135872 | 155658
9 | 34:35.34 | 5:08.41 | 155659 | 178799
10 | 39:44.00 | 4:57.67 | 178800 | 201141
11 | 44:41.67 | 6:25.62 | 201142 | 230078
12 | 51:07.54 | 8:31.21 | 230079 | 268424
13 | 59:39.00 | 4:45.21 | 268425 | 289820
14 | 64:24.21 | 1:36.10 | 289821 | 297030
15 | 66:00.31 | 4:52.69 | 297031 | 318999

Range status and errors

Selected range

Filename H:\bigggwest\Dio – Anthology Volume Two (VSOP CD 338).wav

Peak level 100.0 %
Extraction speed 4.1 X
Range quality 100.0 %
Test CRC 5D03A9AA
Copy CRC 5D03A9AA
Copy OK

No errors occurred

AccurateRip summary

Track 1 accurately ripped (confidence 2) [EF5A04D2] (AR v1)
Track 2 accurately ripped (confidence 2) [4A4DD995] (AR v1)
Track 3 accurately ripped (confidence 2) [A7AD6849] (AR v1)
Track 4 accurately ripped (confidence 2) [01688977] (AR v1)
Track 5 accurately ripped (confidence 2) [F511F473] (AR v1)
Track 6 accurately ripped (confidence 2) [6939C5AE] (AR v1)
Track 7 accurately ripped (confidence 2) [62A2771D] (AR v1)
Track 8 accurately ripped (confidence 2) [73EE5253] (AR v1)
Track 9 accurately ripped (confidence 2) [5ACA3587] (AR v1)
Track 10 accurately ripped (confidence 2) [088F2132] (AR v1)
Track 11 accurately ripped (confidence 2) [B3DC52C6] (AR v1)
Track 12 accurately ripped (confidence 2) [53A0A762] (AR v1)
Track 13 accurately ripped (confidence 2) [877CBEA1] (AR v1)
Track 14 accurately ripped (confidence 2) [3F0619F1] (AR v1)
Track 15 accurately ripped (confidence 2) [58450FD9] (AR v1)

All tracks accurately ripped

End of status report

==== Log checksum 140E4A8319BF1332B61FF6FB2E08339FAD1C7E44DE768113191E9D24D8CE52AA ====

REM GENRE “Heavy Metal”
REM DATE 2001
REM DISCID DF109D0F
REM COMMENT “ExactAudioCopy v1.0b3”
PERFORMER “Dio”
TITLE “Anthology Volume Two (VSOP CD 338)”
FILE “Dio – Anthology Volume Two (VSOP CD 338).flac” WAVE
TRACK 01 AUDIO
TITLE “Dont Talk To Strangers”
PERFORMER “Dio”
INDEX 01 00:00:00
TRACK 02 AUDIO
TITLE “Gypsy”
PERFORMER “Dio”
INDEX 01 04:51:56
TRACK 03 AUDIO
TITLE “Invisible”
PERFORMER “Dio”
INDEX 01 08:30:64
TRACK 04 AUDIO
TITLE “Evil Eyes”
PERFORMER “Dio”
INDEX 01 13:55:38
TRACK 05 AUDIO
TITLE “Mystery”
PERFORMER “Dio”
INDEX 01 17:32:08
TRACK 06 AUDIO
TITLE “Rock And Roll Children”
PERFORMER “Dio”
INDEX 01 21:29:00
TRACK 07 AUDIO
TITLE “Hungry For Heaven”
PERFORMER “Dio”
INDEX 01 25:59:24
TRACK 08 AUDIO
TITLE “Dream Evil”
PERFORMER “Dio”
INDEX 01 30:11:47
TRACK 09 AUDIO
TITLE “Naked In The Rain”
PERFORMER “Dio”
INDEX 01 34:35:34
TRACK 10 AUDIO
TITLE “Hey Angel”
PERFORMER “Dio”
INDEX 01 39:44:00
TRACK 11 AUDIO
TITLE “Between Two Hearts”
PERFORMER “Dio”
INDEX 01 44:41:67
TRACK 12 AUDIO
TITLE “Lock Up The Wolves”
PERFORMER “Dio”
INDEX 01 51:07:54
TRACK 13 AUDIO
TITLE “Rainbow In The Dark (Live)”
PERFORMER “Dio”
INDEX 01 59:39:00
TRACK 14 AUDIO
TITLE “Long Live Rock And Roll (Live)”
PERFORMER “Dio”
INDEX 01 64:24:21
TRACK 15 AUDIO
TITLE “We Rock (Live)”
PERFORMER “Dio”
INDEX 01 66:00:31


Leave a Reply

Your email address will not be published. Required fields are marked *

Enter the text from the image below
 

This site uses Akismet to reduce spam. Learn how your comment data is processed.