Dio – Angry Machines




No Cover available

Artist: Dio
Year: 1996
Genre: Metal
Notes: Discogs
Add. Notes:
Watch Songs on: YouTube
Cover incl.: Yes
Encoder: FLAC
Bitrate: ~900 kBit/s (44.1 kHz/16 Bit/s)
Log & Cue incl.: Yes/Yes
Size: 374,7 MB
Password: “slam” (without ” “)


All Downloads/Hosters are compatible

Download 1
KatFile.com
Turbobit.net
Rapidgator.net
DoUploads.net
Download 2
KatFile.com
Turbobit.net
Rapidgator.net
DoUploads.net

Tracklist:

1 Institutional Man 5:09
2 Don't Tell The Kids 4:19
3 Black 3:11
4 Hunter Of The Heart 4:13
5 Stay Out Of My Mind 7:11
6 Big Sister 5:36
7 Double Monday 2:56
8 Golden Rules 4:54
9 Dying In America 4:39
10 This Is Your Life 3:24

EAC-Log, CUE-Sheed & NFO:

Click to open spoiler
Exact Audio Copy V1.0 beta 3 from 29. August 2011

EAC extraction logfile from 16. February 2013, 9:44

Dio / Angry Machines (SPV 085-18292 CD)

Used drive : TEAC DV-W28EA Adapter: 0 ID: 1

Read mode : Secure
Utilize accurate stream : Yes
Defeat audio cache : Yes
Make use of C2 pointers : No

Read offset correction : 102
Overread into Lead-In and Lead-Out : No
Fill up missing offset samples with silence : Yes
Delete leading and trailing silent blocks : No
Null samples used in CRC calculations : Yes
Used interface : Native Win32 interface for Win NT & 2000

Used output format : Internal WAV Routines
Sample format : 44.100 Hz; 16 Bit; Stereo

TOC of the extracted CD

Track | Start | Length | Start sector | End sector
———————————————————
1 | 0:00.32 | 5:09.03 | 32 | 23209
2 | 5:09.35 | 4:18.72 | 23210 | 42631
3 | 9:28.32 | 3:10.45 | 42632 | 56926
4 | 12:39.02 | 4:13.40 | 56927 | 75941
5 | 16:52.42 | 7:11.13 | 75942 | 108279
6 | 24:03.55 | 5:35.57 | 108280 | 133461
7 | 29:39.37 | 2:55.65 | 133462 | 146651
8 | 32:35.27 | 4:54.00 | 146652 | 168701
9 | 37:29.27 | 4:38.68 | 168702 | 189619
10 | 42:08.20 | 3:24.07 | 189620 | 204926

Range status and errors

Selected range

Filename F:\bigggwest\Dio – Angry Machines (SPV 085-18292 CD).wav

Peak level 94.4 %
Extraction speed 3.7 X
Range quality 99.9 %
Test CRC E2D6CA9B
Copy CRC E2D6CA9B
Copy OK

No errors occurred

AccurateRip summary

Track 1 accurately ripped (confidence 3) [3624371C] (AR v2)
Track 2 accurately ripped (confidence 3) [83128FDC] (AR v2)
Track 3 accurately ripped (confidence 3) [2CC17FF8] (AR v2)
Track 4 accurately ripped (confidence 3) [A7A38D73] (AR v2)
Track 5 accurately ripped (confidence 3) [1864C70E] (AR v2)
Track 6 accurately ripped (confidence 3) [A8336C54] (AR v2)
Track 7 accurately ripped (confidence 3) [A9D0AD51] (AR v2)
Track 8 accurately ripped (confidence 3) [64C6BB26] (AR v2)
Track 9 accurately ripped (confidence 3) [D9221CE3] (AR v2)
Track 10 accurately ripped (confidence 3) [543281D3] (AR v2)

All tracks accurately ripped

End of status report

==== Log checksum 111E77438162410B6F475AD80CBCFE795D23AF6AE847596F178E08D495C1518C ====

REM GENRE “Heavy Metal”
REM DATE 1996
REM DISCID 700AAC0A
REM COMMENT “ExactAudioCopy v1.0b3”
CATALOG 0000000000000
PERFORMER “Dio”
TITLE “Angry Machines (SPV 085-18292 CD)”
FILE “Dio – Angry Machines (SPV 085-18292 CD).flac” WAVE
TRACK 01 AUDIO
TITLE “Institutional Man”
PERFORMER “Dio”
ISRC DEE459602200
INDEX 00 00:00:00
INDEX 01 00:00:32
TRACK 02 AUDIO
TITLE “Don’t Tell the Kids”
PERFORMER “Dio”
ISRC DEE459602210
INDEX 00 05:07:42
INDEX 01 05:09:35
TRACK 03 AUDIO
TITLE “Black”
PERFORMER “Dio”
ISRC DEE459602220
INDEX 00 09:26:72
INDEX 01 09:28:32
TRACK 04 AUDIO
TITLE “Hunter of the Heart”
PERFORMER “Dio”
ISRC DEE459602230
INDEX 00 12:37:25
INDEX 01 12:39:02
TRACK 05 AUDIO
TITLE “Stay Out of My Mind”
PERFORMER “Dio”
ISRC DEE459602240
INDEX 00 16:51:40
INDEX 01 16:52:42
TRACK 06 AUDIO
TITLE “Big Sister”
PERFORMER “Dio”
ISRC DEE459602250
INDEX 00 24:01:00
INDEX 01 24:03:55
TRACK 07 AUDIO
TITLE “Double Monday”
PERFORMER “Dio”
ISRC DEE459602260
INDEX 00 29:37:57
INDEX 01 29:39:37
TRACK 08 AUDIO
TITLE “Golden Rules”
PERFORMER “Dio”
ISRC DEE459602270
INDEX 00 32:33:12
INDEX 01 32:35:27
TRACK 09 AUDIO
TITLE “Dying in America”
PERFORMER “Dio”
ISRC DEE459602280
INDEX 00 37:27:07
INDEX 01 37:29:27
TRACK 10 AUDIO
TITLE “This is Your Life”
PERFORMER “Dio”
ISRC DEE459602290
INDEX 00 42:04:45
INDEX 01 42:08:20


0

Publication author

offline 9 hours

Chaos

3
Comments: 4Publics: 3424Registration: 02-02-2019
Spread the Download

Leave a Reply

Your email address will not be published. Required fields are marked *

Enter the text from the image below
 

This site uses Akismet to reduce spam. Learn how your comment data is processed.