Dio – Angry Machines (Japanese Edition)




Artist: Dio
Year: 1996
Genre: Metal
Notes: Discogs
Add. Notes: Japanese Edition
Cover incl.: Yes
Encoder: FLAC
Bitrate: ~1000 kBit/s (44.1 kHz/16 Bit/s)
Log & Cue incl.: Yes
Size: 461,79 MB
Password: “slam” (without ” “)


All Downloads/Hosters are compatible

Download 1
Turbobit.net
NitroFlare.com
Rapidgator.net
Download 2
Turbobit.net
NitroFlare.com
Rapidgator.net

Tracklist:

1 - Institutional Man - 5:07
2 - Don't Tell The Kids - 4:17
3 - Black - 3:09
4 - Hunter Of The Heart - 4:12
5 - Stay Out Of My Mind - 7:18
6 - Big Sister - 5:34
7 - Double Monday - 2:53
8 - Golden Rules - 4:51
9 - Dying In America - 4:35
10 - God Hates Heavy Metal - 3:42
11 - This Is Your Life - 3:24

EAC-Log, CUE-Sheed & NFO:

Click to open spoiler
Exact Audio Copy V0.99 prebeta 5 from 4. May 2009

EAC extraction logfile from 23. January 2013, 22:36

Dio / Angry Machines (PHCR-1467)

Used drive : Optiarc BD RW BD-5740H Adapter: 0 ID: 0

Read mode : Secure
Utilize accurate stream : Yes
Defeat audio cache : Yes
Make use of C2 pointers : No

Read offset correction : 48
Overread into Lead-In and Lead-Out : No
Fill up missing offset samples with silence : Yes
Delete leading and trailing silent blocks : No
Null samples used in CRC calculations : Yes
Used interface : Native Win32 interface for Win NT & 2000

Used output format : User Defined Encoder
Selected bitrate : 1024 kBit/s
Quality : High
Add ID3 tag : No
Command line compressor : C:\Program Files (x86)\Exact Audio Copy\Flac\flac.exe
Additional command line options : -T “DATE=%y” -T “GENRE=%m” -8 -V %s

TOC of the extracted CD

Track | Start | Length | Start sector | End sector
———————————————————
1 | 0:00.00 | 5:09.00 | 0 | 23174
2 | 5:09.00 | 4:19.00 | 23175 | 42599
3 | 9:28.00 | 3:10.45 | 42600 | 56894
4 | 12:38.45 | 4:13.40 | 56895 | 75909
5 | 16:52.10 | 7:11.12 | 75910 | 108246
6 | 24:03.22 | 5:35.58 | 108247 | 133429
7 | 29:39.05 | 2:55.70 | 133430 | 146624
8 | 32:35.00 | 4:54.00 | 146625 | 168674
9 | 37:29.00 | 4:36.40 | 168675 | 189414
10 | 42:05.40 | 3:45.35 | 189415 | 206324
11 | 45:51.00 | 3:24.15 | 206325 | 221639

Range status and errors

Selected range

Filename D:\Ripped By liveevil\Dio – Angry Machines (PHCR-1467).wav

Peak level 94.4 %
Range quality 100.0 %
Test CRC B019D44B
Copy CRC B019D44B
Copy OK

No errors occurred

AccurateRip summary

Track 1 accurately ripped (confidence 2) [051033C2]
Track 2 accurately ripped (confidence 2) [0CB5BC87]
Track 3 accurately ripped (confidence 2) [C9689F59]
Track 4 accurately ripped (confidence 2) [E967866D]
Track 5 accurately ripped (confidence 3) [91ACF953]
Track 6 accurately ripped (confidence 2) [211D4975]
Track 7 accurately ripped (confidence 3) [2E5A2ABB]
Track 8 accurately ripped (confidence 2) [428CF29A]
Track 9 accurately ripped (confidence 2) [715EC33B]
Track 10 accurately ripped (confidence 3) [55743D69]
Track 11 accurately ripped (confidence 3) [37F26006]

All tracks accurately ripped

End of status report

REM GENRE “Heavy Metal”
REM DATE 1996
REM DISCID 860B8B0B
REM COMMENT “ExactAudioCopy v0.99pb5”
PERFORMER “Dio”
TITLE “Angry Machines (PHCR-1467)”
FILE “Dio – Angry Machines (PHCR-1467).flac” WAVE
TRACK 01 AUDIO
TITLE “Institutional Man”
PERFORMER “Dio”
INDEX 01 00:00:00
TRACK 02 AUDIO
TITLE “Don’t Tell The Kids”
PERFORMER “Dio”
INDEX 00 05:07:20
INDEX 01 05:09:00
TRACK 03 AUDIO
TITLE “Black”
PERFORMER “Dio”
INDEX 00 09:26:47
INDEX 01 09:28:00
TRACK 04 AUDIO
TITLE “Hunter Of The Heart”
PERFORMER “Dio”
INDEX 00 12:37:02
INDEX 01 12:38:45
TRACK 05 AUDIO
TITLE “Stay Out Of My Mind”
PERFORMER “Dio”
INDEX 00 16:51:17
INDEX 01 16:52:10
TRACK 06 AUDIO
TITLE “Big Sister”
PERFORMER “Dio”
INDEX 00 24:00:52
INDEX 01 24:03:22
TRACK 07 AUDIO
TITLE “Double Monday”
PERFORMER “Dio”
INDEX 00 29:37:37
INDEX 01 29:39:05
TRACK 08 AUDIO
TITLE “Golden Rules”
PERFORMER “Dio”
INDEX 00 32:32:65
INDEX 01 32:35:00
TRACK 09 AUDIO
TITLE “Dying In America”
PERFORMER “Dio”
INDEX 00 37:26:55
INDEX 01 37:29:00
TRACK 10 AUDIO
TITLE “God Hates Heavy Metal (Bonus Track)”
PERFORMER “Dio”
INDEX 00 42:04:22
INDEX 01 42:05:40
TRACK 11 AUDIO
TITLE “This Is Your Life”
PERFORMER “Dio”
INDEX 00 45:47:67
INDEX 01 45:51:00


Leave a Reply

Your email address will not be published. Required fields are marked *

This site uses Akismet to reduce spam. Learn how your comment data is processed.