Die Toten Hosen – Wir warten auf’s Christkind




Artist: Die Toten Hosen
Year: 1998
Genre: Punk
Notes: Discogs
Add. Notes:
Cover incl.: Yes
Encoder: FLAC
Bitrate: ~1000 kBit/s (44.1 kHz/16 Bit/s)
Log & Cue incl.: Yes
Size: 542,8 MB
Password: “slam” (without ” “)


All Downloads/Hosters are compatible

Download 1
Turbobit.net
KatFile.com
Rapidgator.net
Download 2
Turbobit.net
KatFile.com
Rapidgator.net

Tracklist:

1 - Ave Maria - 1:56
2 - Stille Nacht, Heilige Nacht - 1:50
3 - Ihr Kinderlein Kommet - 1:40
4 - Oh Tannenbaum - 1:20
5 - Merry X-Mas Everybody - 3:19
6 - Weihnachtsmann Vom Dach - 4:02
7 - Auld Lang Syne - 2:32
8 - The Little Drummer Boy - 3:49
9 - Leise Rieselt Der Schnee - 2:55
10 - Alle Jahre Wieder - 1:28
11 - Frohes Fest - 3:41
12 - White Christmas - 3:49
13 - Weihnachten Bei Den Brandts - 3:42
14 - Hark! The Herald Angels Sing - 2:20
15 - We Wish You A Merry Christmas - 3:07
16 - In Dulci Jubilo  - 5:28
17 - Happy X-Mas (War Is Over) - 2:38
18 - Jingle Bells - 3:09
19 - I Wish It Could Be Christmas Every Day - 3:52
20 - Still, Still, Still - 1:28

EAC-Log, CUE-Sheed & NFO:

Click to open spoiler
Exact Audio Copy V0.99 prebeta 4 from 23. January 2008

EAC Auslese-Logdatei vom 15. März 2009, 15:14

Die Toten Hosen / Die Roten Rosen – Wir warten auf’s Christkind

Benutztes Laufwerk : HL-DT-STDVD-ROM GDR-H30N Adapter: 0 ID: 1

Lesemodus : Sicher
Benutze Accurate Stream : Ja
Audio Puffer abgeschaltet : Ja
Benutze C2 Fehlerinformationen : Nein

Leseoffset Korrektur : 6
Überlesen in das Lead-In und Lead-Out : Nein
Fülle fehlende Offsetsample mit Stille auf : Ja
Lösche führende und nachfolgende stille Blöcke : Nein
Null Samples gehen in CRC Berechnungen ein : Ja
Benutzte Schnittstelle : Installierte externe ASPI Schnittstelle

Benutztes Ausgabeformat : Interne WAV Routinen
Sampleformat : 44.100 Hz; 16 Bit; Stereo

TOC der ausgelesenen CD

Track | Start | Länge | Startsektor | Endsektor
——————————————————-
1 | 0:00.00 | 1:55.70 | 0 | 8694
2 | 1:55.70 | 1:50.04 | 8695 | 16948
3 | 3:45.74 | 1:40.14 | 16949 | 24462
4 | 5:26.13 | 1:19.64 | 24463 | 30451
5 | 6:46.02 | 3:18.69 | 30452 | 45370
6 | 10:04.71 | 4:01.69 | 45371 | 63514
7 | 14:06.65 | 2:31.39 | 63515 | 74878
8 | 16:38.29 | 3:48.41 | 74879 | 92019
9 | 20:26.70 | 2:54.58 | 92020 | 105127
10 | 23:21.53 | 1:27.45 | 105128 | 111697
11 | 24:49.23 | 3:40.71 | 111698 | 128268
12 | 28:30.19 | 3:48.39 | 128269 | 145407
13 | 32:18.58 | 3:41.60 | 145408 | 162042
14 | 36:00.43 | 2:19.64 | 162043 | 172531
15 | 38:20.32 | 3:06.20 | 172532 | 186501
16 | 41:26.52 | 5:28.46 | 186502 | 211147
17 | 46:55.23 | 2:37.39 | 211148 | 222961
18 | 49:32.62 | 3:08.66 | 222962 | 237127
19 | 52:41.53 | 3:51.64 | 237128 | 254516
20 | 56:33.42 | 1:28.09 | 254517 | 261125

Bereichsstatus und Fehler

Gewählter Bereich

Dateiname K:\Die Toten Hosen – Diskografie\Albums\1998 – Wir warten auf’s Christkind\Die Toten Hosen – Die Roten Rosen – Wir warten auf’s Christkind.wav

Spitzenpegel 99.2 %
Bereichsqualität 99.9 %
Kopie CRC CCA1CE9C
Kopie OK

Keine Fehler aufgetreten

AccurateRip Übersicht

Track 1 akkurat gelesen (Zuversicht 36) [A353E7B1]
Track 2 akkurat gelesen (Zuversicht 35) [B163792F]
Track 3 akkurat gelesen (Zuversicht 36) [0E246CA0]
Track 4 akkurat gelesen (Zuversicht 36) [85ECA223]
Track 5 akkurat gelesen (Zuversicht 36) [060AA6D7]
Track 6 akkurat gelesen (Zuversicht 36) [E895CFE1]
Track 7 akkurat gelesen (Zuversicht 36) [7D432295]
Track 8 akkurat gelesen (Zuversicht 36) [F31C0382]
Track 9 akkurat gelesen (Zuversicht 36) [2B950693]
Track 10 akkurat gelesen (Zuversicht 36) [4FDF79CA]
Track 11 akkurat gelesen (Zuversicht 36) [105691A2]
Track 12 akkurat gelesen (Zuversicht 36) [6EDE8C45]
Track 13 akkurat gelesen (Zuversicht 36) [1A5AE504]
Track 14 akkurat gelesen (Zuversicht 36) [8F32C393]
Track 15 akkurat gelesen (Zuversicht 35) [96F1DC68]
Track 16 akkurat gelesen (Zuversicht 36) [006ABF40]
Track 17 akkurat gelesen (Zuversicht 36) [F5CCD0F8]
Track 18 akkurat gelesen (Zuversicht 36) [5F376776]
Track 19 akkurat gelesen (Zuversicht 35) [1ECC0C6E]
Track 20 akkurat gelesen (Zuversicht 34) [6CDCFFE7]

Alle Tracks wurden akkurat gelesen

Ende des Statusreports

REM GENRE “Punk Rock”
REM DATE 1998
REM DISCID FE0D9914
REM COMMENT “ExactAudioCopy v0.99pb4”
PERFORMER “Die Toten Hosen”
TITLE “Die Roten Rosen – Wir warten auf’s Christkind”
FILE “Die Toten Hosen – Die Roten Rosen – Wir warten auf’s Christkind.flac” WAVE
TRACK 01 AUDIO
TITLE “Ave Maria”
PERFORMER “Die Toten Hosen”
INDEX 01 00:00:00
TRACK 02 AUDIO
TITLE “Stille Nacht, Heilige Nacht”
PERFORMER “Die Toten Hosen”
INDEX 01 01:55:70
TRACK 03 AUDIO
TITLE “Ihr Kinderlein kommet”
PERFORMER “Die Toten Hosen”
INDEX 01 03:45:74
TRACK 04 AUDIO
TITLE “Oh Tannenbaum”
PERFORMER “Die Toten Hosen”
INDEX 01 05:26:13
TRACK 05 AUDIO
TITLE “Merry X-Mas Everybody”
PERFORMER “Die Toten Hosen”
INDEX 01 06:46:02
TRACK 06 AUDIO
TITLE “Weihnachtsmann vom Dach”
PERFORMER “Die Toten Hosen”
INDEX 01 10:04:71
TRACK 07 AUDIO
TITLE “Auld Lang Syne”
PERFORMER “Die Toten Hosen”
INDEX 01 14:06:65
TRACK 08 AUDIO
TITLE “The Little Drummer Boy”
PERFORMER “Die Toten Hosen”
INDEX 01 16:38:29
TRACK 09 AUDIO
TITLE “Leise rieselt der Schnee”
PERFORMER “Die Toten Hosen”
INDEX 01 20:26:70
TRACK 10 AUDIO
TITLE “Alle Jahre wieder”
PERFORMER “Die Toten Hosen”
INDEX 01 23:21:53
TRACK 11 AUDIO
TITLE “Frohes Fest”
PERFORMER “Die Toten Hosen”
INDEX 01 24:49:23
TRACK 12 AUDIO
TITLE “White Christmas”
PERFORMER “Die Toten Hosen”
INDEX 01 28:30:19
TRACK 13 AUDIO
TITLE “Weihnachten bei den Brandts”
PERFORMER “Die Toten Hosen”
INDEX 01 32:18:58
TRACK 14 AUDIO
TITLE “Hark! The Herald Angels Sing”
PERFORMER “Die Toten Hosen”
INDEX 01 36:00:43
TRACK 15 AUDIO
TITLE “We Wish You A Merry Christmas”
PERFORMER “Die Toten Hosen”
INDEX 01 38:20:32
TRACK 16 AUDIO
TITLE “In Dulci Jubilo (Medley: Jubilo, Oh Du Froehliche, Vom Himmel hoch…)”
PERFORMER “Die Toten Hosen”
INDEX 01 41:26:52
TRACK 17 AUDIO
TITLE “Happy X-Mas (War Is Over)”
PERFORMER “Die Toten Hosen”
INDEX 01 46:55:23
TRACK 18 AUDIO
TITLE “Jingle Bells”
PERFORMER “Die Toten Hosen”
INDEX 01 49:32:62
TRACK 19 AUDIO
TITLE “I Wish It Could Be Christmas Every Day”
PERFORMER “Die Toten Hosen”
INDEX 01 52:41:53
TRACK 20 AUDIO
TITLE “Still, Still, Still”
PERFORMER “Die Toten Hosen”
INDEX 01 56:33:42


Leave a Reply

Your email address will not be published. Required fields are marked *

This site uses Akismet to reduce spam. Learn how your comment data is processed.