Die Toten Hosen – Unter falscher Flagge




Artist: Die Toten Hosen
Year: 1984/1989
Genre: Punk
Notes: Discogs
Add. Notes:
Cover incl.: Yes
Encoder: FLAC
Bitrate: ~900 kBit/s (44.1 kHz/16 Bit/s)
Log & Cue incl.: Yes
Size: 338,03 MB
Password: “slam” (without ” “)


All Downloads/Hosters are compatible

Download 1
Turbobit.net
Rapidgator.net
KatFile.com
UploadRar.com
Download 2
Turbobit.net
Rapidgator.net
KatFile.com
UploadRar.com

Tracklist:

1 - Spiel Mir Das Lied Vom Tod - 2:19
2 - Liebesspieler - 2:50
3 - Letzte Wache - 3:18
4 - Der Abt Von Andex - 3:12
5 - Der Mord An Vicky Morgan - 3:32
6 - Im Hafen Ist Endstation - 4:16
7 - Unter Flascher Flagge - 4:12
8 - Sekt Oder Selters - 3:56
9 - Der Schandfleck - 2:56
10 - Betrunken Im Dienst - 2:20
11 - Shake Hands - 2:13
12 - Warten Auf Dich - 3:40
13 - Im Hafen Ist Endstation 2 - 1:12

EAC-Log, CUE-Sheed & NFO:

Click to open spoiler
Exact Audio Copy V0.99 prebeta 3 from 28. July 2007

EAC Auslese-Logdatei vom 11. November 2008, 9:38

Die Toten Hosen / Unter falscher Flagge

Benutztes Laufwerk : HL-DT-STDVD-ROM GDR-H30N Adapter: 0 ID: 1

Lesemodus : Sicher
Benutze Accurate Stream : Ja
Audio Puffer abgeschaltet : Ja
Benutze C2 Fehlerinformationen : Nein

Leseoffset Korrektur : 6
Überlesen in das Lead-In und Lead-Out : Nein
Fülle fehlende Offsetsample mit Stille auf : Ja
Lösche führende und nachfolgende stille Blöcke : Nein
Null Samples gehen in CRC Berechnungen ein : Ja
Benutzte Schnittstelle : Installierte externe ASPI Schnittstelle

Benutztes Ausgabeformat : Interne WAV Routinen
Sampleformat : 44.100 Hz; 16 Bit; Stereo

TOC der ausgelesenen CD

Track | Start | Länge | Startsektor | Endsektor
——————————————————-
1 | 0:00.00 | 2:23.60 | 0 | 10784
2 | 2:23.60 | 2:48.55 | 10785 | 23439
3 | 5:12.40 | 3:14.37 | 23440 | 38026
4 | 8:27.02 | 3:11.00 | 38027 | 52351
5 | 11:38.02 | 3:28.38 | 52352 | 67989
6 | 15:06.40 | 4:23.25 | 67990 | 87739
7 | 19:29.65 | 4:10.20 | 87740 | 106509
8 | 23:40.10 | 3:57.65 | 106510 | 124349
9 | 27:38.00 | 2:54.67 | 124350 | 137466
10 | 30:32.67 | 2:20.45 | 137467 | 148011
11 | 32:53.37 | 2:13.03 | 148012 | 157989
12 | 35:06.40 | 3:36.17 | 157990 | 174206
13 | 38:42.57 | 1:14.43 | 174207 | 179799

Bereichsstatus und Fehler

Gewählter Bereich

Dateiname K:\Die Toten Hosen – Diskografie\Albums\1984 – Unter falscher Flagge\Die Toten Hosen – Unter falscher Flagge.wav

Spitzenpegel 100.0 %
Bereichsqualität 100.0 %
Kopie CRC F9467A4B
Kopie OK

Keine Fehler aufgetreten

AccurateRip Übersicht

Track 1 akkurat gelesen (Zuversicht 5) [B2118F61]
Track 2 akkurat gelesen (Zuversicht 5) [B1BC1A02]
Track 3 akkurat gelesen (Zuversicht 5) [BDA19650]
Track 4 akkurat gelesen (Zuversicht 5) [3A708DC3]
Track 5 akkurat gelesen (Zuversicht 5) [52F45A3F]
Track 6 akkurat gelesen (Zuversicht 5) [A1A63CF8]
Track 7 akkurat gelesen (Zuversicht 5) [44BE4FEC]
Track 8 akkurat gelesen (Zuversicht 5) [3A97B4BA]
Track 9 akkurat gelesen (Zuversicht 5) [57F3B70C]
Track 10 akkurat gelesen (Zuversicht 5) [258EA1CA]
Track 11 akkurat gelesen (Zuversicht 5) [4C501F29]
Track 12 akkurat gelesen (Zuversicht 5) [C0DFA22A]
Track 13 akkurat gelesen (Zuversicht 5) [B4DFC0B6]

Alle Tracks wurden akkurat gelesen

Ende des Statusreports

REM GENRE Deutsch-Rock
REM DATE 1984
REM DISCID 96095D0D
REM COMMENT “ExactAudioCopy v0.99pb3”
PERFORMER “Die Toten Hosen”
TITLE “Unter falscher Flagge”
FILE “Die Toten Hosen – Unter falscher Flagge.flac” WAVE
TRACK 01 AUDIO
TITLE “Spiel mir das Lied vom Tod”
PERFORMER “Die Toten Hosen”
INDEX 01 00:00:00
TRACK 02 AUDIO
TITLE “Liebesspieler”
PERFORMER “Die Toten Hosen”
INDEX 00 02:22:45
INDEX 01 02:23:60
TRACK 03 AUDIO
TITLE “Letzte Wache”
PERFORMER “Die Toten Hosen”
INDEX 00 05:11:52
INDEX 01 05:12:40
TRACK 04 AUDIO
TITLE “Der Abt von Andex”
PERFORMER “Die Toten Hosen”
INDEX 01 08:27:02
TRACK 05 AUDIO
TITLE “Der Mord an Vicky Morgan”
PERFORMER “Die Toten Hosen”
INDEX 00 11:37:42
INDEX 01 11:38:02
TRACK 06 AUDIO
TITLE “Im Hafen ist Endstation”
PERFORMER “Die Toten Hosen”
INDEX 00 15:06:27
INDEX 01 15:06:40
TRACK 07 AUDIO
TITLE “Unter falscher Flagge”
PERFORMER “Die Toten Hosen”
INDEX 00 19:28:12
INDEX 01 19:29:65
TRACK 08 AUDIO
TITLE “Sekt oder Selters”
PERFORMER “Die Toten Hosen”
INDEX 00 23:39:42
INDEX 01 23:40:10
TRACK 09 AUDIO
TITLE “Der Schandfleck”
PERFORMER “Die Toten Hosen”
INDEX 01 27:38:00
TRACK 10 AUDIO
TITLE “Betrunken im Dienst”
PERFORMER “Die Toten Hosen”
INDEX 01 30:32:67
TRACK 11 AUDIO
TITLE “Shake Hands”
PERFORMER “Die Toten Hosen”
INDEX 00 32:52:32
INDEX 01 32:53:37
TRACK 12 AUDIO
TITLE “Warten auf Dich”
PERFORMER “Die Toten Hosen”
INDEX 00 35:05:62
INDEX 01 35:06:40
TRACK 13 AUDIO
TITLE “Im Hafen ist Endstation 2”
PERFORMER “Die Toten Hosen”
INDEX 00 38:42:45
INDEX 01 38:42:57
p


Leave a Reply

Your email address will not be published. Required fields are marked *

This site uses Akismet to reduce spam. Learn how your comment data is processed.