Die Toten Hosen – Unter falscher Flagge (Remastered)




Artist: Die Toten Hosen
Year: 1984/2007
Genre: Punk
Notes: Discogs
Add. Notes: Remastered
Cover incl.: Yes
Encoder: FLAC
Bitrate: ~1000 kBit/s (44.1 kHz/16 Bit/s)
Log & Cue incl.: Yes
Size: 591 MB
Password: “slam” (without ” “)


All Downloads/Hosters are compatible

Download 1
KatFile.com
Turbobit.net
Rapidgator.net
Turbobit.net
Download 2
KatFile.com
Turbobit.net
Rapidgator.net
Turbobit.net

Tracklist:

1  Spiel Mir Das Lied Vom Tod  2:25
2  Liebesspieler  2:48
3  Letzte Wache  3:15
4  Der Abt Von Andex  3:12
5  Der Mord An Vicky Morgan  3:29
6  Im Hafen Ist Endstation  4:23
7  Unter Flascher Flagge  4:11
8  Sekt Oder Selters  3:58
9  Der Schandfleck  2:55
10  Betrunken Im Dienst  2:21
11  Shake Hands  2:13
12  Warten Auf Dich  3:37
13  Im Hafen Ist Endstation 2  1:15
 Bonusmeilen
 „Liebesspieler + Die John Peel 
Session”, EP, 
1984
14  Spiel Mir Das Lied Vom Tod  1:17
15  Es Ist Vorbei  2:28
16  Till To The Bitter End  2:49
17  Seafever  3:38
18  Hofgarten  1:41
 „Unter Falscher Flagge”, Demo, 
1984
19  Hip Hop Bommi Bop  4:26
 „Battle Of The Bands”, EP, 1985
20  Faust In Der Tasche  3:56
21  Head Over Heels  4:05
22  La Historia Del Pescador Pepe  
3:18
23  Schöne Bescherung  2:23
24  Vom Surfen Und Vom Saufen  
2:50
 „Unter Falscher Flagge”, Demo, 
1984
25  Der Schandfleck  2:44
26  Unter Falscher Flagge  3:58

EAC-Log, CUE-Sheed & NFO:

Click to open spoiler
Exact Audio Copy V0.99 prebeta 3 from 28. July 2007

EAC Auslese-Logdatei vom 8. November 2008, 10:58

Die Toten Hosen / Unter falscher Flagge (Remastered)

Benutztes Laufwerk : HL-DT-STDVD-ROM GDR-H30N Adapter: 0 ID: 1

Lesemodus : Sicher
Benutze Accurate Stream : Ja
Audio Puffer abgeschaltet : Ja
Benutze C2 Fehlerinformationen : Nein

Leseoffset Korrektur : 6
Überlesen in das Lead-In und Lead-Out : Nein
Fülle fehlende Offsetsample mit Stille auf : Ja
Lösche führende und nachfolgende stille Blöcke : Nein
Null Samples gehen in CRC Berechnungen ein : Ja
Benutzte Schnittstelle : Installierte externe ASPI Schnittstelle

Benutztes Ausgabeformat : Interne WAV Routinen
Sampleformat : 44.100 Hz; 16 Bit; Stereo

TOC der ausgelesenen CD

Track | Start | Länge | Startsektor | Endsektor
——————————————————-
1 | 0:00.00 | 2:24.73 | 0 | 10872
2 | 2:24.73 | 2:47.63 | 10873 | 23460
3 | 5:12.61 | 3:14.57 | 23461 | 38067
4 | 8:27.43 | 3:11.39 | 38068 | 52431
5 | 11:39.07 | 3:29.07 | 52432 | 68113
6 | 15:08.14 | 4:23.11 | 68114 | 87849
7 | 19:31.25 | 4:11.05 | 87850 | 106679
8 | 23:42.30 | 3:58.18 | 106680 | 124547
9 | 27:40.48 | 2:55.21 | 124548 | 137693
10 | 30:35.69 | 2:20.64 | 137694 | 148257
11 | 32:56.58 | 2:13.18 | 148258 | 158250
12 | 35:10.01 | 3:36.39 | 158251 | 174489
13 | 38:46.40 | 1:15.03 | 174490 | 180117
14 | 40:01.43 | 1:17.14 | 180118 | 185906
15 | 41:18.57 | 2:27.49 | 185907 | 196980
16 | 43:46.31 | 2:48.67 | 196981 | 209647
17 | 46:35.23 | 3:38.13 | 209648 | 226010
18 | 50:13.36 | 1:41.28 | 226011 | 233613
19 | 51:54.64 | 4:26.29 | 233614 | 253592
20 | 56:21.18 | 3:55.68 | 253593 | 271285
21 | 60:17.11 | 4:05.35 | 271286 | 289695
22 | 64:22.46 | 3:17.51 | 289696 | 304521
23 | 67:40.22 | 2:23.11 | 304522 | 315257
24 | 70:03.33 | 2:49.45 | 315258 | 327977
25 | 72:53.03 | 2:43.58 | 327978 | 340260
26 | 75:36.61 | 3:58.23 | 340261 | 358133

Bereichsstatus und Fehler

Gewählter Bereich

Dateiname K:\Die Toten Hosen – Diskografie\Albums\2007 – Die DTH-Jubilaeumsedition (17 CD)\02 – Unter falscher Flagge\Die Toten Hosen – Unter falscher Flagge (Remastered).wav

Spitzenpegel 100.0 %
Bereichsqualität 100.0 %
Kopie CRC 9ACBECAB
Kopie OK

Keine Fehler aufgetreten

AccurateRip Übersicht

Track 1 nicht in Datenbank enthalten
Track 2 nicht in Datenbank enthalten
Track 3 nicht in Datenbank enthalten
Track 4 nicht in Datenbank enthalten
Track 5 nicht in Datenbank enthalten
Track 6 nicht in Datenbank enthalten
Track 7 nicht in Datenbank enthalten
Track 8 nicht in Datenbank enthalten
Track 9 nicht in Datenbank enthalten
Track 10 nicht in Datenbank enthalten
Track 11 nicht in Datenbank enthalten
Track 12 nicht in Datenbank enthalten
Track 13 nicht in Datenbank enthalten
Track 14 nicht in Datenbank enthalten
Track 15 nicht in Datenbank enthalten
Track 16 nicht in Datenbank enthalten
Track 17 nicht in Datenbank enthalten
Track 18 nicht in Datenbank enthalten
Track 19 nicht in Datenbank enthalten
Track 20 nicht in Datenbank enthalten
Track 21 nicht in Datenbank enthalten
Track 22 nicht in Datenbank enthalten
Track 23 nicht in Datenbank enthalten
Track 24 nicht in Datenbank enthalten
Track 25 nicht in Datenbank enthalten
Track 26 nicht in Datenbank enthalten

Keiner der Tracks ist in der AccurateRip Datenbank vorhanden

Ende des Statusreports

AUDIOCHECKER v2.0 beta (build 457) – by Dester – opdester@freemail.hu
~~~~~~~~~~~~~~~~~~~~~~~~~~~~~~~~~~
-=== DO NOT EDIT THIS FILE! ===-

Path: …\CD 02 – Unter Falscher Flagge (1984)

001 -=- 01. Spiel Mir Das Lied Vom Tod.flac -=- CDDA (100%)
002 -=- 02. Liebesspieler.flac -=- CDDA (100%)
003 -=- 03. Letzte Wache.flac -=- CDDA (100%)
004 -=- 04. Der Abt Von Andex.flac -=- CDDA (100%)
005 -=- 05. Der Mord An Vicky Morgan.flac -=- CDDA (100%)
006 -=- 06. Im Hafen Ist Endstation.flac -=- CDDA (100%)
007 -=- 07. Unter Falscher Flagge.flac -=- CDDA (99%)
008 -=- 08. Sekt Oder Selters.flac -=- CDDA (100%)
009 -=- 09. Der Schandfleck.flac -=- MPEG (95%)
010 -=- 10. Betrunken Im Dienst.flac -=- CDDA (100%)
011 -=- 11. Shake Hands.flac -=- CDDA (100%)
012 -=- 12. Warten Auf Dich.flac -=- CDDA (99%)
013 -=- 13. Im Hafen Ist Endstation 2.flac -=- CDDA (100%)
014 -=- 14. Spiel Mir Das Lied Vom Tod (Liebesspieler + Die John Peel Session-Single).flac -=- CDDA (100%)
015 -=- 15. Es Ist Vorbei (Liebesspieler + Die John Peel Session-Single).flac -=- CDDA (99%)
016 -=- 16. Till To The Bitter End (Liebesspieler + Die John Peel Session-Single).flac -=- CDDA (100%)
017 -=- 17. Seafever (Liebesspieler + Die John Peel Session-Single).flac -=- CDDA (100%)
018 -=- 18. Hofgarten (Liebesspieler + Die John Peel Session-Single).flac -=- CDDA (99%)
019 -=- 19. Hip Hop Bommi Bop (Demo).flac -=- CDDA (99%)
020 -=- 20. Faust In Der Tasche (The Battle Of The Bands-Album).flac -=- CDDA (100%)
021 -=- 21. Head Over Heels (The Battle Of The Bands-Album).flac -=- CDDA (100%)
022 -=- 22. La Historia Del Pescador Pepe (The Battle Of The Bands-Album).flac -=- CDDA (100%)
023 -=- 23. Schöne Bescherung (The Battle Of The Bands-Album).flac -=- CDDA (100%)
024 -=- 24. Vom Surfen Und Vom Saufen (The Battle Of The Bands-Album).flac -=- CDDA (99%)
025 -=- 25. Der Schandfleck (Demo).flac -=- CDDA (99%)
026 -=- 26. Unter Falscher Flagge (Demo).flac -=- CDDA (100%)

Summary 96,08% CDDA

142387460


Leave a Reply

Your email address will not be published. Required fields are marked *

This site uses Akismet to reduce spam. Learn how your comment data is processed.