Die Toten Hosen – Unsterblich




[Total: 0    Average: 0/5]

Artist: Die Toten Hosen
Year: 1999
Genre: Punk
Notes: Discogs
Add. Notes:
Cover incl.: Yes
Encoder: FLAC
Bitrate: ~1000 kBit/s (44.1 kHz/16 Bit/s)
Log & Cue incl.: Yes
Size: 675,76 MB
Password: “slam” (without ” “)


All Downloads/Hosters are compatible

Download 1
Share-online.biz
KatFile.com
Rapidgator.net
Download 2
Share-online.biz
KatFile.com
Rapidgator.net

Tracklist:

1 - Entschuldigung, Es Tut Uns Leid! - 4:05
2 - Lesbische, Schwarze Behinderte - 2:28
3 - Warum Werde Ich Nicht Satt? - 3:28
4 - Wofür Man Lebt - 3:18
5 - Helden Und Diebe - 6:05
6 - Sonntag Im Zoo - 2:37
7 - Schön Sein - 3:12
8 - Container-Lied - 1:07
9 - Alles Wie Immer - 2:49
10 - Unsterblich - 3:46
11 - Inter-Sex - 0:40
12 - Call Of The Wild - 3:23
13 - Unser Haus - 3:22
14 - Regen - 2:09
15 - König Der Blinden - 3:32
16 - Bayern - 4:16
17 - Der Mond, Der Kühlschrank Und Ich - 2:43
18 - Die Unendlichkeit - 1:28

EAC-Log, CUE-Sheed & NFO:

Click to open spoiler
Exact Audio Copy V0.99 prebeta 4 from 23. January 2008

EAC Auslese-Logdatei vom 15. März 2009, 15:45

Die Toten Hosen / Unsterblich

Benutztes Laufwerk : HL-DT-STDVD-ROM GDR-H30N Adapter: 0 ID: 1

Lesemodus : Sicher
Benutze Accurate Stream : Ja
Audio Puffer abgeschaltet : Ja
Benutze C2 Fehlerinformationen : Nein

Leseoffset Korrektur : 6
Überlesen in das Lead-In und Lead-Out : Nein
Fülle fehlende Offsetsample mit Stille auf : Ja
Lösche führende und nachfolgende stille Blöcke : Nein
Null Samples gehen in CRC Berechnungen ein : Ja
Benutzte Schnittstelle : Installierte externe ASPI Schnittstelle

Benutztes Ausgabeformat : Interne WAV Routinen
Sampleformat : 44.100 Hz; 16 Bit; Stereo

TOC der ausgelesenen CD

Track | Start | Länge | Startsektor | Endsektor
——————————————————-
1 | 0:00.00 | 4:03.72 | 0 | 18296
2 | 4:03.72 | 2:25.61 | 18297 | 29232
3 | 6:29.58 | 3:29.11 | 29233 | 44918
4 | 9:58.69 | 3:17.14 | 44919 | 59707
5 | 13:16.08 | 6:02.14 | 59708 | 86871
6 | 19:18.22 | 2:37.11 | 86872 | 98657
7 | 21:55.33 | 3:09.25 | 98658 | 112857
8 | 25:04.58 | 1:06.61 | 112858 | 117868
9 | 26:11.44 | 2:49.02 | 117869 | 130545
10 | 29:00.46 | 3:46.05 | 130546 | 147500
11 | 32:46.51 | 0:39.50 | 147501 | 150475
12 | 33:26.26 | 3:23.66 | 150476 | 165766
13 | 36:50.17 | 3:22.43 | 165767 | 180959
14 | 40:12.60 | 2:09.06 | 180960 | 190640
15 | 42:21.66 | 3:32.53 | 190641 | 206593
16 | 45:54.44 | 4:15.39 | 206594 | 225757
17 | 50:10.08 | 2:42.43 | 225758 | 237950
18 | 52:52.51 | 1:27.60 | 237951 | 244535

Bereichsstatus und Fehler

Gewählter Bereich

Dateiname K:\Die Toten Hosen – Diskografie\Albums\1999 – Unsterblich\Die Toten Hosen – Unsterblich.wav

Spitzenpegel 99.2 %
Bereichsqualität 100.0 %
Kopie CRC ED38EB5B
Kopie OK

Keine Fehler aufgetreten

AccurateRip Übersicht

Track 1 akkurat gelesen (Zuversicht 54) [F614C6A3]
Track 2 akkurat gelesen (Zuversicht 55) [AD110B9F]
Track 3 akkurat gelesen (Zuversicht 52) [F069134F]
Track 4 akkurat gelesen (Zuversicht 52) [8AAB2DB9]
Track 5 akkurat gelesen (Zuversicht 53) [49436F72]
Track 6 akkurat gelesen (Zuversicht 59) [66C7361A]
Track 7 akkurat gelesen (Zuversicht 54) [0F9E7EA6]
Track 8 akkurat gelesen (Zuversicht 53) [C2338490]
Track 9 akkurat gelesen (Zuversicht 53) [0A8E85A9]
Track 10 akkurat gelesen (Zuversicht 55) [55AFCC56]
Track 11 akkurat gelesen (Zuversicht 55) [E6A3BEB9]
Track 12 akkurat gelesen (Zuversicht 52) [FD0C58D9]
Track 13 akkurat gelesen (Zuversicht 52) [A94FDD23]
Track 14 akkurat gelesen (Zuversicht 52) [BB216771]
Track 15 akkurat gelesen (Zuversicht 52) [18BDE0C1]
Track 16 akkurat gelesen (Zuversicht 51) [A73F0578]
Track 17 akkurat gelesen (Zuversicht 54) [B11A227B]
Track 18 akkurat gelesen (Zuversicht 54) [D9C7274A]

Alle Tracks wurden akkurat gelesen

Ende des Statusreports

REM GENRE “Punk Rock”
REM DATE 1999
REM DISCID E10CBC12
REM COMMENT “ExactAudioCopy v0.99pb4”
PERFORMER “Die Toten Hosen”
TITLE “Unsterblich”
FILE “Die Toten Hosen – Unsterblich.wav” WAVE
TRACK 01 AUDIO
TITLE “Entschuldigung, es tut uns leid!”
PERFORMER “Die Toten Hosen”
INDEX 01 00:00:00
TRACK 02 AUDIO
TITLE “Lesbische, Schwarze Behinderte”
PERFORMER “Die Toten Hosen”
INDEX 01 04:03:72
TRACK 03 AUDIO
TITLE “Warum werde ich nicht satt?”
PERFORMER “Die Toten Hosen”
INDEX 01 06:29:58
TRACK 04 AUDIO
TITLE “Wofür man lebt”
PERFORMER “Die Toten Hosen”
INDEX 01 09:58:69
TRACK 05 AUDIO
TITLE “Helden und Diebe”
PERFORMER “Die Toten Hosen”
INDEX 01 13:16:08
TRACK 06 AUDIO
TITLE “Sonntag im Zoo”
PERFORMER “Die Toten Hosen”
INDEX 01 19:18:22
TRACK 07 AUDIO
TITLE “Schön sein”
PERFORMER “Die Toten Hosen”
INDEX 01 21:55:33
TRACK 08 AUDIO
TITLE “Container-Lied”
PERFORMER “Die Toten Hosen”
INDEX 01 25:04:58
TRACK 09 AUDIO
TITLE “Alles wie immer”
PERFORMER “Die Toten Hosen”
INDEX 01 26:11:44
TRACK 10 AUDIO
TITLE “Unsterblich”
PERFORMER “Die Toten Hosen”
INDEX 01 29:00:46
TRACK 11 AUDIO
TITLE “Intersex”
PERFORMER “Die Toten Hosen”
INDEX 01 32:46:51
TRACK 12 AUDIO
TITLE “Call of the wild”
PERFORMER “Die Toten Hosen”
INDEX 01 33:26:26
TRACK 13 AUDIO
TITLE “Unser Haus”
PERFORMER “Die Toten Hosen”
INDEX 01 36:50:17
TRACK 14 AUDIO
TITLE “Regen”
PERFORMER “Die Toten Hosen”
INDEX 01 40:12:60
TRACK 15 AUDIO
TITLE “König der Blinden”
PERFORMER “Die Toten Hosen”
INDEX 01 42:21:66
TRACK 16 AUDIO
TITLE “Bayern”
PERFORMER “Die Toten Hosen”
INDEX 01 45:54:44
TRACK 17 AUDIO
TITLE “Der Mond, der Kühlschrank und ich”
PERFORMER “Die Toten Hosen”
INDEX 01 50:10:08
TRACK 18 AUDIO
TITLE “Die Unendlichkeit”
PERFORMER “Die Toten Hosen”
INDEX 01 52:52:51


Spread the Download

Leave a Reply

Your email address will not be published. Required fields are marked *

Enter the text from the image below
 

This site uses Akismet to reduce spam. Learn how your comment data is processed.