Die Toten Hosen – Unsterblich (Remastered)




Artist: Die Toten Hosen
Year: 1999/2007
Genre: Punk
Notes: Discogs
Add. Notes: Remastered
Cover incl.: Yes
Encoder: FLAC
Bitrate: ~1000 kBit/s (44.1 kHz/16 Bit/s)
Log & Cue incl.: Yes
Size: 598,75 MB
Password: “slam” (without ” “)


All Downloads/Hosters are compatible

Download 1
Turbobit.net
Rapidgator.net
KatFile.com
UploadRar.com
Download 2
Turbobit.net
Rapidgator.net
KatFile.com
UploadRar.com

Tracklist:

1 - Entschuldigung, Es Tut Uns Leid! - 4:05
2 - Lesbische, Schwarze Behinderte - 2:28
3 - Warum Werde Ich Nicht Satt? - 3:28
4 - Wofür Man Lebt - 3:18
5 - Helden Und Diebe - 6:05
6 - Sonntag Im Zoo - 2:37
7 - Schön Sein - 3:12
8 - Container-Lied - 1:07
9 - Alles Wie Immer - 2:49
10 - Unsterblich - 3:46
11 - Inter-Sex - 0:40
12 - Call Of The Wild - 3:23
13 - Unser Haus - 3:22
14 - Regen - 2:09
15 - König Der Blinden - 3:32
16 - Bayern - 4:16
17 - Der Mond, Der Kühlschrank Und Ich - 2:43
18 - Die Unendlichkeit - 1:28
Extrabeilage
19 - Ich Seh' Die Schiffe Den Fluss Herunterfahren ("pop 2000", Compilation, 1999) 
20 - Fußball ("Schön Sein", Single, 1999) 
21 - Im Westen Nichts Neues ("Schön Sein", Single, 1999) 
22 - Gesicht 2000 ("Unsterblich", Demos, 1999) 
23 - Lass Doch Mal Dampf Ab ("Bayern", Single, 2000) 
24 - Meine Stadt (Pro Asyl, "On The Run", Sampler, 2005) 
25 - Neandertaler ("Unsterblich", Demos, 1999) 
26 - In Der Nacht Der Lebenden Leichen (Radio Fritz, "10 Jahre", Sampler, 2003) 
27 - You're Dead ("Schön Sein", Single, 1999)

EAC-Log, CUE-Sheed & NFO:

Click to open spoiler
Exact Audio Copy V0.99 prebeta 3 from 28. July 2007

EAC Auslese-Logdatei vom 10. November 2008, 14:48

Die Toten Hosen / Unsterblich (Remastered)

Benutztes Laufwerk : HL-DT-STDVD-ROM GDR-H30N Adapter: 0 ID: 1

Lesemodus : Sicher
Benutze Accurate Stream : Ja
Audio Puffer abgeschaltet : Ja
Benutze C2 Fehlerinformationen : Nein

Leseoffset Korrektur : 6
Überlesen in das Lead-In und Lead-Out : Nein
Fülle fehlende Offsetsample mit Stille auf : Ja
Lösche führende und nachfolgende stille Blöcke : Nein
Null Samples gehen in CRC Berechnungen ein : Ja
Benutzte Schnittstelle : Installierte externe ASPI Schnittstelle

Benutztes Ausgabeformat : Interne WAV Routinen
Sampleformat : 44.100 Hz; 16 Bit; Stereo

TOC der ausgelesenen CD

Track | Start | Länge | Startsektor | Endsektor
——————————————————-
1 | 0:00.42 | 4:05.21 | 42 | 18437
2 | 4:05.63 | 2:26.32 | 18438 | 29419
3 | 6:32.20 | 3:29.62 | 29420 | 45156
4 | 10:02.07 | 3:16.72 | 45157 | 59928
5 | 13:19.04 | 6:03.21 | 59929 | 87174
6 | 19:22.25 | 2:37.63 | 87175 | 99012
7 | 22:00.13 | 3:09.10 | 99013 | 113197
8 | 25:09.23 | 1:07.05 | 113198 | 118227
9 | 26:16.28 | 2:49.36 | 118228 | 130938
10 | 29:05.64 | 3:46.42 | 130939 | 147930
11 | 32:52.31 | 0:39.53 | 147931 | 150908
12 | 33:32.09 | 3:24.36 | 150909 | 166244
13 | 36:56.45 | 3:23.02 | 166245 | 181471
14 | 40:19.47 | 2:09.12 | 181472 | 191158
15 | 42:28.59 | 3:33.35 | 191159 | 207168
16 | 46:02.19 | 4:19.15 | 207169 | 226608
17 | 50:21.34 | 2:42.69 | 226609 | 238827
18 | 53:04.28 | 1:29.74 | 238828 | 245576
19 | 54:34.27 | 2:41.50 | 245577 | 257701
20 | 57:16.02 | 2:09.13 | 257702 | 267389
21 | 59:25.15 | 1:59.03 | 267390 | 276317
22 | 61:24.18 | 2:20.02 | 276318 | 286819
23 | 63:44.20 | 2:24.14 | 286820 | 297633
24 | 66:08.34 | 2:47.25 | 297634 | 310183
25 | 68:55.59 | 3:22.13 | 310184 | 325346
26 | 72:17.72 | 2:33.51 | 325347 | 336872
27 | 74:51.48 | 4:41.67 | 336873 | 358014

Bereichsstatus und Fehler

Gewählter Bereich

Dateiname K:\Die Toten Hosen – Diskografie\Albums\2007 – Die DTH-Jubilaeumsedition (17 CD)\16 – Unsterblich\Die Toten Hosen – Unsterblich (Remastered).wav

Spitzenpegel 100.0 %
Bereichsqualität 100.0 %
Kopie CRC 5C0D911F
Kopie OK

Keine Fehler aufgetreten

AccurateRip Übersicht

Track 1 nicht in Datenbank enthalten
Track 2 nicht in Datenbank enthalten
Track 3 nicht in Datenbank enthalten
Track 4 nicht in Datenbank enthalten
Track 5 nicht in Datenbank enthalten
Track 6 nicht in Datenbank enthalten
Track 7 nicht in Datenbank enthalten
Track 8 nicht in Datenbank enthalten
Track 9 nicht in Datenbank enthalten
Track 10 nicht in Datenbank enthalten
Track 11 nicht in Datenbank enthalten
Track 12 nicht in Datenbank enthalten
Track 13 nicht in Datenbank enthalten
Track 14 nicht in Datenbank enthalten
Track 15 nicht in Datenbank enthalten
Track 16 nicht in Datenbank enthalten
Track 17 nicht in Datenbank enthalten
Track 18 nicht in Datenbank enthalten
Track 19 nicht in Datenbank enthalten
Track 20 nicht in Datenbank enthalten
Track 21 nicht in Datenbank enthalten
Track 22 nicht in Datenbank enthalten
Track 23 nicht in Datenbank enthalten
Track 24 nicht in Datenbank enthalten
Track 25 nicht in Datenbank enthalten
Track 26 nicht in Datenbank enthalten
Track 27 nicht in Datenbank enthalten

Keiner der Tracks ist in der AccurateRip Datenbank vorhanden

Ende des Statusreports

AUDIOCHECKER v2.0 beta (build 457) – by Dester – opdester@freemail.hu
~~~~~~~~~~~~~~~~~~~~~~~~~~~~~~~~~~
-=== DO NOT EDIT THIS FILE! ===-

Path: …\CD 16 – Unsterblich (1999)

001 -=- 01. Entschuldigung, Es Tut Uns Leid!.flac -=- CDDA (100%)
002 -=- 02. Lesbische, Schwarze Behinderte.flac -=- CDDA (100%)
003 -=- 03. Warum Werde Ich Nicht Satt.flac -=- CDDA (100%)
004 -=- 04. Wofür Man Lebt.flac -=- CDDA (100%)
005 -=- 05. Helden Und Diebe.flac -=- CDDA (100%)
006 -=- 06. Sonntag Im Zoo.flac -=- CDDA (100%)
007 -=- 07. Schön Sein.flac -=- CDDA (100%)
008 -=- 08. Container-Lied.flac -=- CDDA (100%)
009 -=- 09. Alles Wie Immer.flac -=- CDDA (100%)
010 -=- 10. Unsterblich.flac -=- CDDA (100%)
011 -=- 11. Inter-Sex.flac -=- CDDA (100%)
012 -=- 12. Call Of The Wild.flac -=- CDDA (99%)
013 -=- 13. Unser Haus.flac -=- CDDA (100%)
014 -=- 14. Regen.flac -=- CDDA (100%)
015 -=- 15. König Der Blinden.flac -=- CDDA (100%)
016 -=- 16. Bayern.flac -=- CDDA (100%)
017 -=- 17. Der Mond, Der Kühlschrank Und Ich.flac -=- CDDA (100%)
018 -=- 18. Die Unendlichkeit.flac -=- CDDA (99%)
019 -=- 19. Ich Seh Die Schiffe Den Fluss Herunterfahren (Pop 2000-Compilation).flac -=- CDDA (100%)
020 -=- 20. Fußball (Schön Sein-Single).flac -=- CDDA (99%)
021 -=- 21. Im Westen Nichts Neues (Schön Sein-Single).flac -=- CDDA (100%)
022 -=- 22. Gesicht 2000 (Demo).flac -=- CDDA (100%)
023 -=- 23. Lass Doch Mal Dampf Ab (Bayern-Single).flac -=- CDDA (100%)
024 -=- 24. Meine Stadt (On The Run-Sampler).flac -=- CDDA (99%)
025 -=- 25. Neandertaler (Demo).flac -=- CDDA (100%)
026 -=- 26. In Der Nacht Der Lebenden Leichen (Radio Fritz 10 Jahre-Sampler).flac -=- CDDA (100%)
027 -=- 27. You’re Dead (Schön Sein-Single).flac -=- CDDA (100%)

Summary 99,85% CDDA

196312996


Leave a Reply

Your email address will not be published. Required fields are marked *

This site uses Akismet to reduce spam. Learn how your comment data is processed.