Die Toten Hosen – Reich & Sexy




Artist: Die Toten Hosen
Year: 1993
Genre: Punk
Notes: Discogs
Add. Notes:
Cover incl.: Yes
Encoder: FLAC
Bitrate: ~1000 kBit/s (44.1 kHz/16 Bit/s)
Log & Cue incl.: Yes
Size: 608,24 MB
Password: “slam” (without ” “)


All Downloads/Hosters are compatible

Download 1
Turbobit.net
NitroFlare.com
KatFile.com
Rapidgator.net
Download 2
Turbobit.net
NitroFlare.com
KatFile.com
Rapidgator.net

Tracklist:

1 - Hier Kommt Alex - 4:31
2 - Alles Wird Gut - 3:36
3 - Alles Aus Liebe - 4:34
4 - Azzuro - 2:52
5 - Halbstark - 2:32
6 - Wünsch DIR Was - 4:15
7 - Carnival In Rio (Punk Was) - 3:08
8 - Mehr Davon - 5:10
9 - Liebesspieler - 2:50
10 - Wort Zum Sonntag - 4:27
11 - Born To Lose - 3:21
12 - Sascha ... Ein Aufrechter Deutscher - 2:34
13 - 1000 Gute Gründe - 3:05
14 - All Die Ganzen Jahre - 3:18
15 - Liebeslied - 3:38
16 - Opelgang - 1:54
17 - Wir Sind Bereit - 2:11
18 - Eisgekühlter Bommerlunder - 2:45
19 - Hip Hop Bommi Bop (Tap Into America-Mix) - 4:25
20 - Bis Zum Bitteren Ende - 2:55

EAC-Log, CUE-Sheed & NFO:

Click to open spoiler
Exact Audio Copy V0.99 prebeta 4 from 23. January 2008

EAC Auslese-Logdatei vom 15. März 2009, 13:28

Die Toten Hosen / Reich & Sexy

Benutztes Laufwerk : HL-DT-STDVD-ROM GDR-H30N Adapter: 0 ID: 1

Lesemodus : Sicher
Benutze Accurate Stream : Ja
Audio Puffer abgeschaltet : Ja
Benutze C2 Fehlerinformationen : Nein

Leseoffset Korrektur : 6
Überlesen in das Lead-In und Lead-Out : Nein
Fülle fehlende Offsetsample mit Stille auf : Ja
Lösche führende und nachfolgende stille Blöcke : Nein
Null Samples gehen in CRC Berechnungen ein : Ja
Benutzte Schnittstelle : Installierte externe ASPI Schnittstelle

Benutztes Ausgabeformat : Interne WAV Routinen
Sampleformat : 44.100 Hz; 16 Bit; Stereo

TOC der ausgelesenen CD

Track | Start | Länge | Startsektor | Endsektor
——————————————————-
1 | 0:00.00 | 4:30.53 | 0 | 20302
2 | 4:30.53 | 3:37.40 | 20303 | 36617
3 | 8:08.18 | 4:33.55 | 36618 | 57147
4 | 12:41.73 | 2:35.02 | 57148 | 68774
5 | 15:17.00 | 2:33.20 | 68775 | 80269
6 | 17:50.20 | 4:15.63 | 80270 | 99457
7 | 22:06.08 | 3:09.07 | 99458 | 113639
8 | 25:15.15 | 5:08.70 | 113640 | 136809
9 | 30:24.10 | 2:49.03 | 136810 | 149487
10 | 33:13.13 | 4:18.42 | 149488 | 168879
11 | 37:31.55 | 3:21.68 | 168880 | 184022
12 | 40:53.48 | 2:35.30 | 184023 | 195677
13 | 43:29.03 | 3:22.47 | 195678 | 210874
14 | 46:51.50 | 3:18.50 | 210875 | 225774
15 | 50:10.25 | 3:42.00 | 225775 | 242424
16 | 53:52.25 | 1:55.48 | 242425 | 251097
17 | 55:47.73 | 1:54.60 | 251098 | 259707
18 | 57:42.58 | 2:57.47 | 259708 | 273029
19 | 60:40.30 | 4:15.70 | 273030 | 292224
20 | 64:56.25 | 3:09.30 | 292225 | 306429

Bereichsstatus und Fehler

Gewählter Bereich

Dateiname K:\Die Toten Hosen – Diskografie\Albums\1993 – Reich & Sexy\Die Toten Hosen – Reich & Sexy.wav

Spitzenpegel 94.4 %
Bereichsqualität 99.9 %
Kopie CRC 929E949A
Kopie OK

Keine Fehler aufgetreten

AccurateRip Übersicht

Track 1 akkurat gelesen (Zuversicht 12) [0AACC2AD]
Track 2 akkurat gelesen (Zuversicht 11) [B7D7141A]
Track 3 akkurat gelesen (Zuversicht 11) [4F22F680]
Track 4 akkurat gelesen (Zuversicht 12) [5A956676]
Track 5 akkurat gelesen (Zuversicht 11) [F8B860AD]
Track 6 akkurat gelesen (Zuversicht 12) [EE483D1A]
Track 7 akkurat gelesen (Zuversicht 12) [56A8FE80]
Track 8 akkurat gelesen (Zuversicht 12) [DC083336]
Track 9 akkurat gelesen (Zuversicht 12) [11C00446]
Track 10 akkurat gelesen (Zuversicht 12) [EE0B5F04]
Track 11 akkurat gelesen (Zuversicht 11) [E4920A24]
Track 12 akkurat gelesen (Zuversicht 12) [58F6F29E]
Track 13 akkurat gelesen (Zuversicht 12) [FFD9222E]
Track 14 akkurat gelesen (Zuversicht 12) [B9D40030]
Track 15 akkurat gelesen (Zuversicht 12) [02D23FB3]
Track 16 akkurat gelesen (Zuversicht 12) [0182B3A3]
Track 17 akkurat gelesen (Zuversicht 12) [6C970BE3]
Track 18 akkurat gelesen (Zuversicht 12) [E8D7A69A]
Track 19 akkurat gelesen (Zuversicht 12) [FD908799]
Track 20 akkurat gelesen (Zuversicht 13) [5502230E]

Alle Tracks wurden akkurat gelesen

Ende des Statusreports

REM GENRE Punk
REM DATE 1993
REM DISCID 220FF514
REM COMMENT “ExactAudioCopy v0.99pb4”
PERFORMER “Die Toten Hosen”
TITLE “Reich & Sexy”
FILE “Die Toten Hosen – Reich & Sexy.flac” WAVE
TRACK 01 AUDIO
TITLE “Hier kommt Alex”
PERFORMER “Die Toten Hosen”
INDEX 01 00:00:00
TRACK 02 AUDIO
TITLE “Alles wird gut”
PERFORMER “Die Toten Hosen”
INDEX 01 04:30:53
TRACK 03 AUDIO
TITLE “Alles aus Liebe”
PERFORMER “Die Toten Hosen”
INDEX 01 08:08:18
TRACK 04 AUDIO
TITLE “Azzuro”
PERFORMER “Die Toten Hosen”
INDEX 00 12:40:65
INDEX 01 12:41:73
TRACK 05 AUDIO
TITLE “Halbstark”
PERFORMER “Die Toten Hosen”
INDEX 00 15:15:68
INDEX 01 15:17:00
TRACK 06 AUDIO
TITLE “Wünsch DIR was”
PERFORMER “Die Toten Hosen”
INDEX 01 17:50:20
TRACK 07 AUDIO
TITLE “Carnival in Rio (Punk Was)”
PERFORMER “Die Toten Hosen”
INDEX 01 22:06:08
TRACK 08 AUDIO
TITLE “Mehr davon”
PERFORMER “Die Toten Hosen”
INDEX 00 25:13:45
INDEX 01 25:15:15
TRACK 09 AUDIO
TITLE “Liebesspieler”
PERFORMER “Die Toten Hosen”
INDEX 01 30:24:10
TRACK 10 AUDIO
TITLE “Wort zum Sonntag”
PERFORMER “Die Toten Hosen”
INDEX 00 33:11:25
INDEX 01 33:13:13
TRACK 11 AUDIO
TITLE “Born To Loose”
PERFORMER “Die Toten Hosen”
INDEX 01 37:31:55
TRACK 12 AUDIO
TITLE “Sascha… ein aufrechter Deutscher”
PERFORMER “Die Toten Hosen”
INDEX 01 40:53:48
TRACK 13 AUDIO
TITLE “1000 gute Gründe”
PERFORMER “Die Toten Hosen”
INDEX 00 43:27:55
INDEX 01 43:29:03
TRACK 14 AUDIO
TITLE “All die ganzen Jahre”
PERFORMER “Die Toten Hosen”
INDEX 01 46:51:50
TRACK 15 AUDIO
TITLE “Liebeslied”
PERFORMER “Die Toten Hosen”
INDEX 01 50:10:25
TRACK 16 AUDIO
TITLE “Opelgang”
PERFORMER “Die Toten Hosen”
INDEX 01 53:52:25
TRACK 17 AUDIO
TITLE “Wir sind bereit”
PERFORMER “Die Toten Hosen”
INDEX 01 55:47:73
TRACK 18 AUDIO
TITLE “Eisgekühlter Bommerlunder”
PERFORMER “Die Toten Hosen”
INDEX 01 57:42:58
TRACK 19 AUDIO
TITLE “Hip Hop Bommi Bop”
PERFORMER “Die Toten Hosen”
INDEX 01 60:40:30
TRACK 20 AUDIO
TITLE “Bis zum bitteren Ende”
PERFORMER “Die Toten Hosen”
INDEX 01 64:56:25


Leave a Reply

Your email address will not be published. Required fields are marked *

Enter the text from the image below
 

This site uses Akismet to reduce spam. Learn how your comment data is processed.