Die Toten Hosen – Reich & Sexy (Remastered)




Artist: Die Toten Hosen
Year: 1993
Genre: Punk
Notes: Discogs
Add. Notes: Remastered
Cover incl.: Yes
Encoder: FLAC
Bitrate: ~1000 kBit/s (44.1 kHz/16 Bit/s)
Log & Cue incl.: Yes
Size: 552,06 MB
Password: “slam” (without ” “)


All Downloads/Hosters are compatible

Download 1
Turbobit.net
KatFile.com
Rapidgator.net
NitroFlare.com
Download 2
Turbobit.net
KatFile.com
Rapidgator.net
NitroFlare.com

Tracklist:

1 - Hier Kommt Alex - 
2 - Alles Wird Gut - 
3 - Alles Aus Liebe - 
4 - Azzuro - 
5 - Halbstark - 
6 - Wünsch DIR Was - 
7 - Carnival In Rio (Punk Was) - 
8 - Mehr Davon - 
9 - Liebesspieler - 
10 - Wort Zum Sonntag - 
11 - Born To Lose - 
12 - Sascha... Ein Aufrechter Deutscher - 
13 - 1000 Gute Gründe - 
14 - All Die Ganzen Jahre - 
15 - Liebeslied - 
16 - Opelgang - 
17 - Wir Sind Bereit - 
18 - Eisgekühlter Bommerlunder - 
19 - Hip Hop Bommi Bop - 
20 - Bis Zum Bitteren Ende - 
Einundzwanzig
21 - Die Büttenrede ("Zehn Kleine Jägermeister", 
Promosingle, 1996)

EAC-Log, CUE-Sheed & NFO:

Click to open spoiler
Exact Audio Copy V0.99 prebeta 3 from 28. July 2007

EAC Auslese-Logdatei vom 9. November 2008, 13:44

Die Toten Hosen / Reich & Sexy (Remastered)

Benutztes Laufwerk : HL-DT-STDVD-ROM GDR-H30N Adapter: 0 ID: 1

Lesemodus : Sicher
Benutze Accurate Stream : Ja
Audio Puffer abgeschaltet : Ja
Benutze C2 Fehlerinformationen : Nein

Leseoffset Korrektur : 6
Überlesen in das Lead-In und Lead-Out : Nein
Fülle fehlende Offsetsample mit Stille auf : Ja
Lösche führende und nachfolgende stille Blöcke : Nein
Null Samples gehen in CRC Berechnungen ein : Ja
Benutzte Schnittstelle : Installierte externe ASPI Schnittstelle

Benutztes Ausgabeformat : Interne WAV Routinen
Sampleformat : 44.100 Hz; 16 Bit; Stereo

TOC der ausgelesenen CD

Track | Start | Länge | Startsektor | Endsektor
——————————————————-
1 | 0:00.00 | 4:32.08 | 0 | 20407
2 | 4:32.08 | 3:37.33 | 20408 | 36715
3 | 8:09.41 | 4:33.66 | 36716 | 57256
4 | 12:43.32 | 2:35.01 | 57257 | 68882
5 | 15:18.33 | 2:33.17 | 68883 | 80374
6 | 17:51.50 | 4:16.07 | 80375 | 99581
7 | 22:07.57 | 3:08.68 | 99582 | 113749
8 | 25:16.50 | 5:09.17 | 113750 | 136941
9 | 30:25.67 | 2:49.20 | 136942 | 149636
10 | 33:15.12 | 4:19.14 | 149637 | 169075
11 | 37:34.26 | 3:22.06 | 169076 | 184231
12 | 40:56.32 | 2:35.41 | 184232 | 195897
13 | 43:31.73 | 3:22.70 | 195898 | 211117
14 | 46:54.68 | 3:18.07 | 211118 | 225974
15 | 50:13.00 | 3:42.28 | 225975 | 242652
16 | 53:55.28 | 1:55.41 | 242653 | 251318
17 | 55:50.69 | 1:55.02 | 251319 | 259945
18 | 57:45.71 | 2:56.52 | 259946 | 273197
19 | 60:42.48 | 4:15.65 | 273198 | 292387
20 | 64:58.38 | 3:10.36 | 292388 | 306673
21 | 68:08.74 | 4:04.00 | 306674 | 324973

Bereichsstatus und Fehler

Gewählter Bereich

Dateiname K:\Die Toten Hosen – Diskografie\Albums\2007 – Die DTH-Jubilaeumsedition (17 CD)\10 – Reich & Sexy\Die Toten Hosen – Reich & Sexy (Remastered).wav

Spitzenpegel 100.0 %
Bereichsqualität 100.0 %
Kopie CRC E03F5C5B
Kopie OK

Keine Fehler aufgetreten

AccurateRip Übersicht

Track 1 nicht in Datenbank enthalten
Track 2 nicht in Datenbank enthalten
Track 3 nicht in Datenbank enthalten
Track 4 nicht in Datenbank enthalten
Track 5 nicht in Datenbank enthalten
Track 6 nicht in Datenbank enthalten
Track 7 nicht in Datenbank enthalten
Track 8 nicht in Datenbank enthalten
Track 9 nicht in Datenbank enthalten
Track 10 nicht in Datenbank enthalten
Track 11 nicht in Datenbank enthalten
Track 12 nicht in Datenbank enthalten
Track 13 nicht in Datenbank enthalten
Track 14 nicht in Datenbank enthalten
Track 15 nicht in Datenbank enthalten
Track 16 nicht in Datenbank enthalten
Track 17 nicht in Datenbank enthalten
Track 18 nicht in Datenbank enthalten
Track 19 nicht in Datenbank enthalten
Track 20 nicht in Datenbank enthalten
Track 21 nicht in Datenbank enthalten

Keiner der Tracks ist in der AccurateRip Datenbank vorhanden

Ende des Statusreports

AUDIOCHECKER v2.0 beta (build 457) – by Dester – opdester@freemail.hu
~~~~~~~~~~~~~~~~~~~~~~~~~~~~~~~~~~
-=== DO NOT EDIT THIS FILE! ===-

Path: …\CD 10 – Reich & Sexy (1993)

001 -=- 01. Hier Kommt Alex.flac -=- CDDA (100%)
002 -=- 02. Alles Wird Gut.flac -=- CDDA (100%)
003 -=- 03. Alles Aus Liebe.flac -=- CDDA (100%)
004 -=- 04. Azzurro.flac -=- CDDA (100%)
005 -=- 05. Halbstark.flac -=- CDDA (100%)
006 -=- 06. Wünsch Dir Was.flac -=- CDDA (100%)
007 -=- 07. Carnival In Rio (Punk Was).flac -=- CDDA (100%)
008 -=- 08. Mehr Davon.flac -=- CDDA (99%)
009 -=- 09. Liebesspieler.flac -=- CDDA (100%)
010 -=- 10. Wort Zum Sonntag.flac -=- CDDA (100%)
011 -=- 11. Born To Lose.flac -=- CDDA (99%)
012 -=- 12. Sascha … Ein Aufrechter Deutscher.flac -=- CDDA (99%)
013 -=- 13. 1000 Gute Gründe.flac -=- CDDA (100%)
014 -=- 14. All Die Ganzen Jahre.flac -=- CDDA (100%)
015 -=- 15. Liebeslied.flac -=- CDDA (100%)
016 -=- 16. Opel-Gang.flac -=- CDDA (100%)
017 -=- 17. Wir Sind Bereit.flac -=- CDDA (100%)
018 -=- 18. Eisgekühlter Bommerlunder.flac -=- CDDA (100%)
019 -=- 19. Hip Hop Bommi Bop (Tap-Into-America-Mix).flac -=- CDDA (100%)
020 -=- 20. Bis Zum Bitteren Ende (Live).flac -=- CDDA (100%)
021 -=- 21. Die Büttenrede (Zehn Kleine Jägermeister-Promosingle).flac -=- MPEG (95%)

Summary 95,33% CDDA

80781348


Leave a Reply

Your email address will not be published. Required fields are marked *

This site uses Akismet to reduce spam. Learn how your comment data is processed.