Die Toten Hosen – Reich & Sexy II




[Total: 0    Average: 0/5]

Artist: Die Toten Hosen
Year: 2002
Genre: Punk
Notes: Discogs
Add. Notes:
Cover incl.: Yes
Encoder: FLAC
Bitrate: ~1000 kBit/s (44.1 kHz/16 Bit/s)
Log & Cue incl.: Yes
Size: 1684,77 MB
Password: “slam” (without ” “)


All Downloads/Hosters are compatible

Download 1
Share-online.biz
KatFile.com
Rapidgator.net
Download 2
Share-online.biz
KatFile.com
Rapidgator.net

Tracklist:

1.1 - Pushed Again - 3:50
1.2 - Bonnie & Clyde - 3:34
1.3 - Schön Sein - 3:11
1.4 - Frauen Dieser Welt - 3:51
1.5 - Paradies - 3:59
1.6 - Nichts Bleibt Für Die Ewigkeit - 3:54
1.7 - Was Zählt - 4:39
1.8 - Unsterblich - 3:46
1.9 - Irre - 3:30
1.10 - Steh Auf, Wenn Du Am Boden Bist - 3:53
1.11 - Warum Werde Ich Nicht Satt? - 3:28
1.12 - Madelaine (Aus Lüdenscheid) - 3:37
1.13 - Weihnachtsmann Vom Dach - 4:03
1.14 - Zur Hölle Und Zurück - 3:28
1.15 - Nur Zu Besuch - 4:29
1.16 - Niemals Einer Meinung - 3:43
1.17 - Bayern - 4:19
1.18 - Auld Lang Syne - 2:32
1.19 - Zehn Kleine Jägermeister - 4:22
1.20 - Schönen Gruss, Auf Wiederseh'n - 3:33

2.1 - Entenhausen Bleibt Stabil - 3:25
2.2 - Hang On Sloopy - 2:30
2.3 - Vor Dem Sturm - 3:12
2.4 - Wahre Liebe - 3:29
2.5 - Abitur - 1:57
2.6 - Die "7" Ist Alles - 4:32
2.7 - Tout Pour Sauver L'Amour - 4:31
2.8 - Rest Der Welt - 3:54
2.9 - Police On My Back - 2:16
2.10 - Kleiner Junge - 3:58
2.11 - In Gottes Namen - 3:45
2.12 - Alkohol - 2:03
2.13 - Long Way From Liverpool - 3:02
2.14 - Ein Witz - 2:56
2.15 - Babylon's Burning - 2:23
2.16 - Alles Ist Eins - 3:21
2.17 - Geh Aus Dem Weg - 2:58
2.18 - 100 Tage Bis Zum Untergang - 4:02
2.19 - Walter November - Ein Interview - 1:40
2.20 - You'll Never Walk Alone - 2:34

EAC-Log, CUE-Sheed & NFO:

Click to open spoiler
Exact Audio Copy V0.99 prebeta 4 from 23. January 2008

EAC Auslese-Logdatei vom 15. März 2009, 16:17

Die Toten Hosen / Reich & Sexy 2 – Die fetten Jahre – CD1

Benutztes Laufwerk : HL-DT-STDVD-ROM GDR-H30N Adapter: 0 ID: 1

Lesemodus : Sicher
Benutze Accurate Stream : Ja
Audio Puffer abgeschaltet : Ja
Benutze C2 Fehlerinformationen : Nein

Leseoffset Korrektur : 6
Überlesen in das Lead-In und Lead-Out : Nein
Fülle fehlende Offsetsample mit Stille auf : Ja
Lösche führende und nachfolgende stille Blöcke : Nein
Null Samples gehen in CRC Berechnungen ein : Ja
Benutzte Schnittstelle : Installierte externe ASPI Schnittstelle

Benutztes Ausgabeformat : Interne WAV Routinen
Sampleformat : 44.100 Hz; 16 Bit; Stereo

TOC der ausgelesenen CD

Track | Start | Länge | Startsektor | Endsektor
——————————————————-
1 | 0:00.00 | 3:51.06 | 0 | 17330
2 | 3:51.06 | 3:33.56 | 17331 | 33361
3 | 7:24.62 | 3:10.54 | 33362 | 47665
4 | 10:35.41 | 3:50.62 | 47666 | 64977
5 | 14:26.28 | 3:59.04 | 64978 | 82906
6 | 18:25.32 | 3:54.25 | 82907 | 100481
7 | 22:19.57 | 4:38.65 | 100482 | 121396
8 | 26:58.47 | 3:45.52 | 121397 | 138323
9 | 30:44.24 | 3:30.72 | 138324 | 154145
10 | 34:15.21 | 3:53.37 | 154146 | 171657
11 | 38:08.58 | 3:29.48 | 171658 | 187380
12 | 41:38.31 | 3:36.46 | 187381 | 203626
13 | 45:15.02 | 4:02.66 | 203627 | 221842
14 | 49:17.68 | 3:27.51 | 221843 | 237418
15 | 52:45.44 | 4:28.48 | 237419 | 257566
16 | 57:14.17 | 3:43.32 | 257567 | 274323
17 | 60:57.49 | 4:18.38 | 274324 | 293711
18 | 65:16.12 | 2:32.01 | 293712 | 305112
19 | 67:48.13 | 4:22.35 | 305113 | 324797
20 | 72:10.48 | 3:35.38 | 324798 | 340960

Bereichsstatus und Fehler

Gewählter Bereich

Dateiname K:\Die Toten Hosen – Diskografie\Albums\2002 – Reich & Sexy II\Die Toten Hosen – Reich & Sexy 2 – Die fetten Jahre – CD1.wav

Spitzenpegel 100.0 %
Bereichsqualität 100.0 %
Kopie CRC 912D9B9E
Kopie OK

Keine Fehler aufgetreten

AccurateRip Übersicht

Track 1 akkurat gelesen (Zuversicht 39) [22841801]
Track 2 akkurat gelesen (Zuversicht 38) [55A78D24]
Track 3 akkurat gelesen (Zuversicht 38) [2C349084]
Track 4 akkurat gelesen (Zuversicht 38) [C5431862]
Track 5 akkurat gelesen (Zuversicht 38) [B961FBDB]
Track 6 akkurat gelesen (Zuversicht 38) [0EAF59AE]
Track 7 akkurat gelesen (Zuversicht 38) [026612C8]
Track 8 akkurat gelesen (Zuversicht 38) [47875514]
Track 9 akkurat gelesen (Zuversicht 38) [8E5773E4]
Track 10 akkurat gelesen (Zuversicht 38) [5FD45B20]
Track 11 akkurat gelesen (Zuversicht 38) [50D94596]
Track 12 akkurat gelesen (Zuversicht 38) [CCFA84E2]
Track 13 akkurat gelesen (Zuversicht 38) [12C05B81]
Track 14 akkurat gelesen (Zuversicht 38) [58B33D07]
Track 15 akkurat gelesen (Zuversicht 37) [DEE904EE]
Track 16 akkurat gelesen (Zuversicht 37) [BA5A8FC4]
Track 17 akkurat gelesen (Zuversicht 37) [B990ADE7]
Track 18 akkurat gelesen (Zuversicht 37) [681CF72C]
Track 19 akkurat gelesen (Zuversicht 38) [5C0E9570]
Track 20 akkurat gelesen (Zuversicht 38) [F7C791A1]

Alle Tracks wurden akkurat gelesen

Ende des Statusreports

Exact Audio Copy V0.99 prebeta 4 from 23. January 2008

EAC Auslese-Logdatei vom 15. März 2009, 16:31

Die Toten Hosen / Reich & Sexy II: B-Seiten

Benutztes Laufwerk : HL-DT-STDVD-ROM GDR-H30N Adapter: 0 ID: 1

Lesemodus : Sicher
Benutze Accurate Stream : Ja
Audio Puffer abgeschaltet : Ja
Benutze C2 Fehlerinformationen : Nein

Leseoffset Korrektur : 6
Überlesen in das Lead-In und Lead-Out : Nein
Fülle fehlende Offsetsample mit Stille auf : Ja
Lösche führende und nachfolgende stille Blöcke : Nein
Null Samples gehen in CRC Berechnungen ein : Ja
Benutzte Schnittstelle : Installierte externe ASPI Schnittstelle

Benutztes Ausgabeformat : Interne WAV Routinen
Sampleformat : 44.100 Hz; 16 Bit; Stereo

TOC der ausgelesenen CD

Track | Start | Länge | Startsektor | Endsektor
——————————————————-
1 | 0:00.00 | 3:25.52 | 0 | 15426
2 | 3:25.52 | 2:30.25 | 15427 | 26701
3 | 5:56.02 | 3:12.69 | 26702 | 41170
4 | 9:08.71 | 3:29.10 | 41171 | 56855
5 | 12:38.06 | 1:56.60 | 56856 | 65615
6 | 14:34.66 | 4:32.39 | 65616 | 86054
7 | 19:07.30 | 4:31.56 | 86055 | 106435
8 | 23:39.11 | 3:53.65 | 106436 | 123975
9 | 27:33.01 | 2:16.65 | 123976 | 134240
10 | 29:49.66 | 3:58.54 | 134241 | 152144
11 | 33:48.45 | 3:45.48 | 152145 | 169067
12 | 37:34.18 | 2:03.07 | 169068 | 178299
13 | 39:37.25 | 3:01.59 | 178300 | 191933
14 | 42:39.09 | 2:55.37 | 191934 | 205095
15 | 45:34.46 | 2:24.51 | 205096 | 215946
16 | 47:59.22 | 3:20.54 | 215947 | 231000
17 | 51:20.01 | 2:58.08 | 231001 | 244358
18 | 54:18.09 | 4:02.56 | 244359 | 262564
19 | 58:20.65 | 1:40.59 | 262565 | 270123
20 | 60:01.49 | 2:36.39 | 270124 | 281862

Bereichsstatus und Fehler

Gewählter Bereich

Dateiname K:\Die Toten Hosen – Diskografie\Albums\2002 – Reich & Sexy II\Die Toten Hosen – Reich & Sexy II B-Seiten.wav

Spitzenpegel 100.0 %
Bereichsqualität 100.0 %
Kopie CRC 86CA7E20
Kopie OK

Keine Fehler aufgetreten

AccurateRip Übersicht

Track 1 akkurat gelesen (Zuversicht 33) [F83426A1]
Track 2 akkurat gelesen (Zuversicht 32) [7F2ACA15]
Track 3 akkurat gelesen (Zuversicht 32) [31F51528]
Track 4 akkurat gelesen (Zuversicht 32) [A82D1D8D]
Track 5 akkurat gelesen (Zuversicht 32) [45E19211]
Track 6 akkurat gelesen (Zuversicht 32) [DFB5191B]
Track 7 akkurat gelesen (Zuversicht 32) [51D93B1D]
Track 8 akkurat gelesen (Zuversicht 31) [355F59BD]
Track 9 akkurat gelesen (Zuversicht 32) [9595AD14]
Track 10 akkurat gelesen (Zuversicht 32) [21121F1E]
Track 11 akkurat gelesen (Zuversicht 31) [E5759336]
Track 12 akkurat gelesen (Zuversicht 30) [19559AEF]
Track 13 akkurat gelesen (Zuversicht 30) [6765600A]
Track 14 akkurat gelesen (Zuversicht 32) [1B63673B]
Track 15 akkurat gelesen (Zuversicht 31) [E32611D1]
Track 16 akkurat gelesen (Zuversicht 31) [20126B74]
Track 17 akkurat gelesen (Zuversicht 31) [5788ABB7]
Track 18 akkurat gelesen (Zuversicht 32) [0330C67C]
Track 19 akkurat gelesen (Zuversicht 31) [04460D4D]
Track 20 akkurat gelesen (Zuversicht 31) [B6064FC8]

Alle Tracks wurden akkurat gelesen

Ende des Statusreports

REM GENRE “Punk Rock”
REM DATE 2002
REM DISCID 1D11C214
REM COMMENT “ExactAudioCopy v0.99pb4”
PERFORMER “Die Toten Hosen”
TITLE “Reich & Sexy 2 – Die fetten Jahre – CD1”
FILE “Die Toten Hosen – Reich & Sexy 2 – Die fetten Jahre – CD1.flac” WAVE
TRACK 01 AUDIO
TITLE “Pushed again”
PERFORMER “Die Toten Hosen”
INDEX 01 00:00:00
TRACK 02 AUDIO
TITLE “Bonnie und Clyde”
PERFORMER “Die Toten Hosen”
INDEX 01 03:51:06
TRACK 03 AUDIO
TITLE “Schön sein”
PERFORMER “Die Toten Hosen”
INDEX 01 07:24:62
TRACK 04 AUDIO
TITLE “Frauen dieser Welt”
PERFORMER “Die Toten Hosen”
INDEX 01 10:35:41
TRACK 05 AUDIO
TITLE “Paradies”
PERFORMER “Die Toten Hosen”
INDEX 01 14:26:28
TRACK 06 AUDIO
TITLE “Nichts bleibt fuer die Ewigkeit”
PERFORMER “Die Toten Hosen”
INDEX 01 18:25:32
TRACK 07 AUDIO
TITLE “Was zählt”
PERFORMER “Die Toten Hosen”
INDEX 01 22:19:57
TRACK 08 AUDIO
TITLE “Unsterblich”
PERFORMER “Die Toten Hosen”
INDEX 01 26:58:47
TRACK 09 AUDIO
TITLE “Irre”
PERFORMER “Die Toten Hosen”
INDEX 01 30:44:24
TRACK 10 AUDIO
TITLE “Steh auf, wenn Du am Boden bist”
PERFORMER “Die Toten Hosen”
INDEX 00 34:14:68
INDEX 01 34:15:21
TRACK 11 AUDIO
TITLE “Warum werde ich nicht satt?”
PERFORMER “Die Toten Hosen”
INDEX 00 38:08:37
INDEX 01 38:08:58
TRACK 12 AUDIO
TITLE “Madelaine (aus Lüdenscheid)”
PERFORMER “Die Toten Hosen”
INDEX 00 41:37:05
INDEX 01 41:38:31
TRACK 13 AUDIO
TITLE “Weihnachtsmann vom Dach”
PERFORMER “Die Toten Hosen”
INDEX 01 45:15:02
TRACK 14 AUDIO
TITLE “Zur Hölle und zurück”
PERFORMER “Die Toten Hosen”
INDEX 01 49:17:68
TRACK 15 AUDIO
TITLE “Nur zu Besuch”
PERFORMER “Die Toten Hosen”
INDEX 01 52:45:44
TRACK 16 AUDIO
TITLE “Niemals einer Meinung”
PERFORMER “Die Toten Hosen”
INDEX 01 57:14:17
TRACK 17 AUDIO
TITLE “Bayern”
PERFORMER “Die Toten Hosen”
INDEX 01 60:57:49
TRACK 18 AUDIO
TITLE “Auld lang syne”
PERFORMER “Die Toten Hosen”
INDEX 01 65:16:12
TRACK 19 AUDIO
TITLE “Zehn kleine Jägermeister”
PERFORMER “Die Toten Hosen”
INDEX 01 67:48:13
TRACK 20 AUDIO
TITLE “Schönen Gruß, auf Wiederseh’n”
PERFORMER “Die Toten Hosen”
INDEX 00 72:10:22
INDEX 01 72:10:48

REM GENRE “Punk Rock”
REM DATE 2002
REM DISCID 0C0EAE14
REM COMMENT “ExactAudioCopy v0.99pb4”
PERFORMER “Die Toten Hosen”
TITLE “Reich & Sexy II: B-Seiten”
FILE “Die Toten Hosen – Reich & Sexy II B-Seiten.flac” WAVE
TRACK 01 AUDIO
TITLE “Entenhausen Bleibt Stabil”
PERFORMER “Die Toten Hosen”
INDEX 01 00:00:00
TRACK 02 AUDIO
TITLE “Hang On Sloopy”
PERFORMER “Die Toten Hosen”
INDEX 01 03:25:52
TRACK 03 AUDIO
TITLE “Vor Dem Sturm”
PERFORMER “Die Toten Hosen”
INDEX 01 05:56:02
TRACK 04 AUDIO
TITLE “Wahre Liebe”
PERFORMER “Die Toten Hosen”
INDEX 00 09:08:48
INDEX 01 09:08:71
TRACK 05 AUDIO
TITLE “Abitur”
PERFORMER “Die Toten Hosen”
INDEX 01 12:38:06
TRACK 06 AUDIO
TITLE “Die 7 Ist Alles”
PERFORMER “Die Toten Hosen”
INDEX 01 14:34:66
TRACK 07 AUDIO
TITLE “Tout Pour Sauver L’Amour”
PERFORMER “Die Toten Hosen”
INDEX 00 19:07:16
INDEX 01 19:07:30
TRACK 08 AUDIO
TITLE “Rest Der Welt”
PERFORMER “Die Toten Hosen”
INDEX 00 23:38:01
INDEX 01 23:39:11
TRACK 09 AUDIO
TITLE “Police On My Back”
PERFORMER “Die Toten Hosen”
INDEX 01 27:33:01
TRACK 10 AUDIO
TITLE “Kleiner Junge”
PERFORMER “Die Toten Hosen”
INDEX 00 29:49:31
INDEX 01 29:49:66
TRACK 11 AUDIO
TITLE “In Gottes Namen”
PERFORMER “Die Toten Hosen”
INDEX 00 33:48:35
INDEX 01 33:48:45
TRACK 12 AUDIO
TITLE “Alkohol”
PERFORMER “Die Toten Hosen”
INDEX 00 37:34:10
INDEX 01 37:34:18
TRACK 13 AUDIO
TITLE “Long Way From Liverpool”
PERFORMER “Die Toten Hosen”
INDEX 01 39:37:25
TRACK 14 AUDIO
TITLE “Ein Witz”
PERFORMER “Die Toten Hosen”
INDEX 01 42:39:09
TRACK 15 AUDIO
TITLE “Babylon’s Burning”
PERFORMER “Die Toten Hosen”
INDEX 01 45:34:46
TRACK 16 AUDIO
TITLE “Alles Ist Eins”
PERFORMER “Die Toten Hosen”
INDEX 00 47:58:13
INDEX 01 47:59:22
TRACK 17 AUDIO
TITLE “Geh Aus Dem Weg”
PERFORMER “Die Toten Hosen”
INDEX 01 51:20:01
TRACK 18 AUDIO
TITLE “100 Tage Bis Zum Untergang”
PERFORMER “Die Toten Hosen”
INDEX 00 54:17:73
INDEX 01 54:18:09
TRACK 19 AUDIO
TITLE “Walter November – Ein Interview”
PERFORMER “Die Toten Hosen”
INDEX 00 58:20:41
INDEX 01 58:20:65
TRACK 20 AUDIO
TITLE “You’ll Never Walk Alone”
PERFORMER “Die Toten Hosen”
INDEX 00 60:01:25
INDEX 01 60:01:49


Spread the Download

Leave a Reply

Your email address will not be published. Required fields are marked *

Enter the text from the image below
 

This site uses Akismet to reduce spam. Learn how your comment data is processed.