Die Toten Hosen – Pushed Again




Artist: Die Toten Hosen
Year: 1998
Genre: Punk
Notes: Discogs
Add. Notes:
Cover incl.: Yes
Encoder: FLAC
Bitrate: ~1000 kBit/s (44.1 kHz/16 Bit/s)
Log & Cue incl.: Yes
Size: 107 MB
Password: “slam” (without ” “)


All Downloads/Hosters are compatible

Download 1
KatFile.com
Rapidgator.net
Turbobit.net
FileFactory.com
Download 2
KatFile.com
Rapidgator.net
Turbobit.net
FileFactory.com

Tracklist:

1 - Pushed Again - 3:50
2 - Alles Ist Eins - 3:20
3 - Fliegen - 4:26
4 - Revenge - 4:01

EAC-Log, CUE-Sheed & NFO:

Click to open spoiler
Exact Audio Copy V1.3 from 2. September 2016

EAC extraction logfile from 20. July 2019, 22:03

Die Toten Hosen / Pushed Again

Used drive : HL-DT-STDVDRAM GUE0N Adapter: 1 ID: 0

Read mode : Secure
Utilize accurate stream : Yes
Defeat audio cache : Yes
Make use of C2 pointers : No

Read offset correction : 102
Overread into Lead-In and Lead-Out : No
Fill up missing offset samples with silence : Yes
Delete leading and trailing silent blocks : No
Null samples used in CRC calculations : Yes
Used interface : Native Win32 interface for Win NT & 2000
Gap handling : Appended to previous track

Used output format : User Defined Encoder
Selected bitrate : 1024 kBit/s
Quality : High
Add ID3 tag : No
Command line compressor : C:\Program Files (x86)\Exact Audio Copy\FLAC\FLAC.EXE
Additional command line options : -8 -V -T “ARTIST=%artist%” -T “TITLE=%title%” -T “ALBUM=%albumtitle%” -T “DATE=%year%” -T “TRACKNUMBER=%tracknr%” -T “GENRE=%genre%” -T “COMMENT=%comment%” -T “BAND=%albuminterpret%” -T “COMPOSER=%composer%” %haslyrics%–tag-from-file=LYRICS=”%lyricsfile%”%haslyrics% -T “DISCNUMBER=%cdnumber%” -T “TOTALDISCS=%totalcds%” -T “TOTALTRACKS=%numtracks%” %hascover%–picture=”%coverfile%”%hascover% %source% -o %dest%

TOC of the extracted CD

Track | Start | Length | Start sector | End sector
———————————————————
1 | 0:00.00 | 3:51.18 | 0 | 17342
2 | 3:51.18 | 3:18.73 | 17343 | 32265
3 | 7:10.16 | 4:27.41 | 32266 | 52331
4 | 11:37.57 | 3:59.65 | 52332 | 70321

Track 1

Filename M:\SLAM\www.slam.ws – Lossless Alternative Music\Die Toten Hosen\Pushed Again\01. Pushed Again.wav

Pre-gap length 0:00:02.00

Peak level 99.2 %
Extraction speed 2.2 X
Track quality 100.0 %
Copy CRC E62BDF87
Accurately ripped (confidence 51) [E459D4E8] (AR v2)
Copy OK

Track 2

Filename M:\SLAM\www.slam.ws – Lossless Alternative Music\Die Toten Hosen\Pushed Again\02. Alles ist eins.wav

Peak level 97.7 %
Extraction speed 2.5 X
Track quality 100.0 %
Copy CRC 8F1E7FE6
Accurately ripped (confidence 51) [E9C200C1] (AR v2)
Copy OK

Track 3

Filename M:\SLAM\www.slam.ws – Lossless Alternative Music\Die Toten Hosen\Pushed Again\03. Fliegen.wav

Peak level 99.2 %
Extraction speed 2.3 X
Track quality 99.9 %
Copy CRC BA2C3D69
Accurately ripped (confidence 51) [09350842] (AR v2)
Copy OK

Track 4

Filename M:\SLAM\www.slam.ws – Lossless Alternative Music\Die Toten Hosen\Pushed Again\04. Revenge.wav

Peak level 99.2 %
Extraction speed 3.0 X
Track quality 100.0 %
Copy CRC 07633C69
Accurately ripped (confidence 51) [FCAE90C6] (AR v2)
Copy OK

All tracks accurately ripped

No errors occurred

End of status report

—- CUETools DB Plugin V2.1.6

[CTDB TOCID: VSXUzNB7kLq3ucjKr6fftsVx0AI-] found
Submit result: VSXUzNB7kLq3ucjKr6fftsVx0AI- has been confirmed
Track | CTDB Status
1 | (171/173) Accurately ripped
2 | (172/173) Accurately ripped
3 | (171/173) Accurately ripped
4 | (168/173) Accurately ripped, or (2/173) differs in 2030 samples @03:59:50-03:59:52

==== Log checksum 3A5EAA26542A5DAAB4F5798A6E8690E627E011D83AA65A5F6FADF76E04585CEE ====

REM GENRE “Punk Rock”
REM DATE 1998
REM DISCID 2B03A904
REM COMMENT “ExactAudioCopy v1.3”
PERFORMER “Die Toten Hosen”
TITLE “Pushed Again”
REM COMPOSER “”
FILE “Die Toten Hosen\Pushed Again\01. Pushed Again.wav” WAVE
TRACK 01 AUDIO
TITLE “Pushed Again”
PERFORMER “Die Toten Hosen”
REM COMPOSER “”
ISRC DEF249700520
INDEX 01 00:00:00
FILE “Die Toten Hosen\Pushed Again\02. Alles ist eins.wav” WAVE
TRACK 02 AUDIO
TITLE “Alles ist eins”
PERFORMER “Die Toten Hosen”
REM COMPOSER “”
ISRC DEF249700530
INDEX 01 00:00:00
FILE “Die Toten Hosen\Pushed Again\03. Fliegen.wav” WAVE
TRACK 03 AUDIO
TITLE “Fliegen”
PERFORMER “Die Toten Hosen”
REM COMPOSER “”
ISRC DEF249700540
INDEX 01 00:00:00
FILE “Die Toten Hosen\Pushed Again\04. Revenge.wav” WAVE
TRACK 04 AUDIO
TITLE “Revenge”
PERFORMER “Die Toten Hosen”
REM COMPOSER “”
ISRC DEF249700550
INDEX 01 00:00:00


Leave a Reply

Your email address will not be published. Required fields are marked *

This site uses Akismet to reduce spam. Learn how your comment data is processed.