Die Toten Hosen – Opium Fürs Volk




Artist: Die Toten Hosen
Year: 1996
Genre: Punk
Notes: Discogs
Add. Notes:
Cover incl.: Yes
Encoder: FLAC
Bitrate: ~1000 kBit/s (44.1 kHz/16 Bit/s)
Log & Cue incl.: Yes
Size: 634,16 MB
Password: “slam” (without ” “)


All Downloads/Hosters are compatible

Download 1
Turbobit.net
NitroFlare.com
KatFile.com
Rapidgator.net
Download 2
Turbobit.net
NitroFlare.com
KatFile.com
Rapidgator.net

Tracklist:

1 - Vaterunser - 1:10
2 - Mensch - 4:08
3 - Die Fliege - 1:54
4 - Die Zehn Gebote - 4:04
5 - Böser Wolf - 4:02
6 - Nichts Bleibt Für Die Ewigkeit - 4:10
7 - Ewig Währt Am Längsten (Dub) - 2:54
8 - Und So Weiter - 1:40
9 - Bonnie & Clyde - 3:30
10 - Der Froschkönig - 3:47
11 - XTC - 4:16
12 - Lügen - 4:12
13 - Paradies - 4:08
14 - Und Wir Leben - 3:50
15 - Er Denkt, Sie Denkt - 4:34
16 - Seelentherapie - 5:13
17 - Viva La Revolution - 4:46
18 - Zehn Kleine Jägermeister - 4:45

EAC-Log, CUE-Sheed & NFO:

Click to open spoiler
Exact Audio Copy V0.99 prebeta 4 from 23. January 2008

EAC Auslese-Logdatei vom 15. März 2009, 14:41

Die Toten Hosen / Opium fürs Volk

Benutztes Laufwerk : HL-DT-STDVD-ROM GDR-H30N Adapter: 0 ID: 1

Lesemodus : Sicher
Benutze Accurate Stream : Ja
Audio Puffer abgeschaltet : Ja
Benutze C2 Fehlerinformationen : Nein

Leseoffset Korrektur : 6
Überlesen in das Lead-In und Lead-Out : Nein
Fülle fehlende Offsetsample mit Stille auf : Ja
Lösche führende und nachfolgende stille Blöcke : Nein
Null Samples gehen in CRC Berechnungen ein : Ja
Benutzte Schnittstelle : Installierte externe ASPI Schnittstelle

Benutztes Ausgabeformat : Interne WAV Routinen
Sampleformat : 44.100 Hz; 16 Bit; Stereo

TOC der ausgelesenen CD

Track | Start | Länge | Startsektor | Endsektor
——————————————————-
1 | 0:00.00 | 1:08.27 | 0 | 5126
2 | 1:08.27 | 4:08.23 | 5127 | 23749
3 | 5:16.50 | 1:53.10 | 23750 | 32234
4 | 7:09.60 | 4:02.55 | 32235 | 50439
5 | 11:12.40 | 3:49.07 | 50440 | 67621
6 | 15:01.47 | 4:00.03 | 67622 | 85624
7 | 19:01.50 | 2:53.35 | 85625 | 98634
8 | 21:55.10 | 1:40.37 | 98635 | 106171
9 | 23:35.47 | 3:31.53 | 106172 | 122049
10 | 27:07.25 | 3:45.00 | 122050 | 138924
11 | 30:52.25 | 4:10.40 | 138925 | 157714
12 | 35:02.65 | 4:11.32 | 157715 | 176571
13 | 39:14.22 | 4:07.55 | 176572 | 195151
14 | 43:22.02 | 3:49.65 | 195152 | 212391
15 | 47:11.67 | 4:29.68 | 212392 | 232634
16 | 51:41.60 | 5:12.02 | 232635 | 256036
17 | 56:53.62 | 4:47.03 | 256037 | 277564
18 | 61:40.65 | 4:46.10 | 277565 | 299024

Bereichsstatus und Fehler

Gewählter Bereich

Dateiname K:\Die Toten Hosen – Diskografie\Albums\1996 – Opium fuers Volk\Die Toten Hosen – Opium fürs Volk.wav

Spitzenpegel 96.7 %
Bereichsqualität 100.0 %
Kopie CRC F6AF5E91
Kopie OK

Keine Fehler aufgetreten

AccurateRip Übersicht

Track 1 akkurat gelesen (Zuversicht 91) [B45E89A3]
Track 2 akkurat gelesen (Zuversicht 91) [F407ED11]
Track 3 akkurat gelesen (Zuversicht 90) [C2E7CFAB]
Track 4 akkurat gelesen (Zuversicht 92) [6F653281]
Track 5 akkurat gelesen (Zuversicht 90) [FB801D86]
Track 6 akkurat gelesen (Zuversicht 89) [0F7E4D05]
Track 7 akkurat gelesen (Zuversicht 89) [462D68FD]
Track 8 akkurat gelesen (Zuversicht 92) [C13C358B]
Track 9 akkurat gelesen (Zuversicht 92) [DD386EA5]
Track 10 akkurat gelesen (Zuversicht 90) [7EC06D11]
Track 11 akkurat gelesen (Zuversicht 91) [2131605D]
Track 12 akkurat gelesen (Zuversicht 89) [38109CE8]
Track 13 akkurat gelesen (Zuversicht 92) [4322D40A]
Track 14 akkurat gelesen (Zuversicht 91) [5ABAEF01]
Track 15 akkurat gelesen (Zuversicht 89) [6E9A6401]
Track 16 akkurat gelesen (Zuversicht 84) [304809E6]
Track 17 akkurat gelesen (Zuversicht 84) [75808723]
Track 18 akkurat gelesen (Zuversicht 83) [1D25A2CC]

Alle Tracks wurden akkurat gelesen

Ende des Statusreports

REM GENRE “Punk Rock”
REM DATE 1996
REM DISCID D30F9312
REM COMMENT “ExactAudioCopy v0.99pb4”
PERFORMER “Die Toten Hosen”
TITLE “Opium fürs Volk”
FILE “Die Toten Hosen – Opium furs Volk.flac” WAVE
TRACK 01 AUDIO
TITLE “Vaterunser”
PERFORMER “Die Toten Hosen”
INDEX 01 00:00:00
TRACK 02 AUDIO
TITLE “Mensch”
PERFORMER “Die Toten Hosen”
INDEX 01 01:08:27
TRACK 03 AUDIO
TITLE “Die Fliege”
PERFORMER “Die Toten Hosen”
INDEX 01 05:16:50
TRACK 04 AUDIO
TITLE “Die zehn Gebote”
PERFORMER “Die Toten Hosen”
INDEX 01 07:09:60
TRACK 05 AUDIO
TITLE “Böser Wolf”
PERFORMER “Die Toten Hosen”
INDEX 01 11:12:40
TRACK 06 AUDIO
TITLE “Nichts bleibt für die Ewigkeit”
PERFORMER “Die Toten Hosen”
INDEX 01 15:01:47
TRACK 07 AUDIO
TITLE “Ewig währt am längsten (Dub)”
PERFORMER “Die Toten Hosen”
INDEX 01 19:01:50
TRACK 08 AUDIO
TITLE “Und so weiter…”
PERFORMER “Die Toten Hosen”
INDEX 01 21:55:10
TRACK 09 AUDIO
TITLE “Bonnie & Clyde”
PERFORMER “Die Toten Hosen”
INDEX 01 23:35:47
TRACK 10 AUDIO
TITLE “Der Froschkönig”
PERFORMER “Die Toten Hosen”
INDEX 01 27:07:25
TRACK 11 AUDIO
TITLE “XTC”
PERFORMER “Die Toten Hosen”
INDEX 01 30:52:25
TRACK 12 AUDIO
TITLE “Lügen”
PERFORMER “Die Toten Hosen”
INDEX 01 35:02:65
TRACK 13 AUDIO
TITLE “Paradies”
PERFORMER “Die Toten Hosen”
INDEX 01 39:14:22
TRACK 14 AUDIO
TITLE “Und wir leben”
PERFORMER “Die Toten Hosen”
INDEX 01 43:22:02
TRACK 15 AUDIO
TITLE “Er denkt, sie denkt”
PERFORMER “Die Toten Hosen”
INDEX 01 47:11:67
TRACK 16 AUDIO
TITLE “Seelentherapie”
PERFORMER “Die Toten Hosen”
INDEX 01 51:41:60
TRACK 17 AUDIO
TITLE “Viva la Revolution”
PERFORMER “Die Toten Hosen”
INDEX 01 56:53:62
TRACK 18 AUDIO
TITLE “Zehn kleine Jägermeister”
PERFORMER “Die Toten Hosen”
INDEX 01 61:40:65


Leave a Reply

Your email address will not be published. Required fields are marked *

This site uses Akismet to reduce spam. Learn how your comment data is processed.