Die Toten Hosen – Opium für’s Volk (Remastered)




No Cover available

Artist: Die Toten Hosen
Year: 1996/2007
Genre: Punk
Notes: Discogs
Add. Notes: Remastered
Watch Songs on: YouTube
Cover incl.: Yes
Encoder: FLAC
Bitrate: ~1000 kBit/s (44.1 kHz/16 Bit/s)
Log & Cue incl.: Yes
Size: 563 MB
Password: “slam” (without ” “)


All Downloads/Hosters are compatible

Download 1
KatFile.com
Turbobit.net
Rapidgator.net
Share-online.biz
Download 2
KatFile.com
Turbobit.net
Rapidgator.net
Share-online.biz

Tracklist:

1 - Vaterunser - 1:09
2 - Mensch - 4:09
3 - Die Fliege - 1:53
4 - Die Zehn Gebote - 4:03
5 - Böser Wolf - 3:49
6 - Nichts Bleibt Für Die Ewigkeit - 
4:00
7 - Ewig Währt Am Längsten (Dub) - 
2:54
8 - Und So Weiter - 1:41
9 - Bonnie & Clyde - 3:32
10 - Der Froschkönig - 3:45
11 - XTC - 4:11
12 - Lügen - 4:11
13 - Paradies - 4:08
14 - Und Wir Leben - 3:50
15 - Er Denkt, Sie Denkt - 4:30
16 - Seelentherapie - 5:13
17 - Viva La Revolution - 4:47
18 - Zehn Kleine Jägermeister - 4:47
Mehrwert
19 - Fliegen - 4:29
20 - Prominentenpsychose - 3:15
21 - Herzglück Harte Welle - 1:58

EAC-Log, CUE-Sheed & NFO:

Click to open spoiler
Exact Audio Copy V0.99 prebeta 3 from 28. July 2007

EAC Auslese-Logdatei vom 10. November 2008, 0:48

Die toten Hosen / Opium fürs Volk (REMASTERED)

Benutztes Laufwerk : HL-DT-STDVD-ROM GDR-H30N Adapter: 0 ID: 1

Lesemodus : Sicher
Benutze Accurate Stream : Ja
Audio Puffer abgeschaltet : Ja
Benutze C2 Fehlerinformationen : Nein

Leseoffset Korrektur : 6
Überlesen in das Lead-In und Lead-Out : Nein
Fülle fehlende Offsetsample mit Stille auf : Ja
Lösche führende und nachfolgende stille Blöcke : Nein
Null Samples gehen in CRC Berechnungen ein : Ja
Benutzte Schnittstelle : Installierte externe ASPI Schnittstelle

Benutztes Ausgabeformat : Interne WAV Routinen
Sampleformat : 44.100 Hz; 16 Bit; Stereo

TOC der ausgelesenen CD

Track | Start | Länge | Startsektor | Endsektor
——————————————————-
1 | 0:00.00 | 1:09.12 | 0 | 5186
2 | 1:09.12 | 4:08.54 | 5187 | 23840
3 | 5:17.66 | 1:53.34 | 23841 | 32349
4 | 7:11.25 | 4:02.43 | 32350 | 50542
5 | 11:13.68 | 3:48.70 | 50543 | 67712
6 | 15:02.63 | 4:00.17 | 67713 | 85729
7 | 19:03.05 | 2:53.39 | 85730 | 98743
8 | 21:56.44 | 1:40.60 | 98744 | 106303
9 | 23:37.29 | 3:31.55 | 106304 | 122183
10 | 27:09.09 | 3:44.61 | 122184 | 139044
11 | 30:53.70 | 4:10.49 | 139045 | 157843
12 | 35:04.44 | 4:11.25 | 157844 | 176693
13 | 39:15.69 | 4:08.22 | 176694 | 195315
14 | 43:24.16 | 3:50.36 | 195316 | 212601
15 | 47:14.52 | 4:30.25 | 212602 | 232876
16 | 51:45.02 | 5:12.60 | 232877 | 256336
17 | 56:57.62 | 4:47.09 | 256337 | 277870
18 | 61:44.71 | 4:46.45 | 277871 | 299365
19 | 66:31.41 | 4:28.39 | 299366 | 319504
20 | 71:00.05 | 3:14.47 | 319505 | 334101
21 | 74:14.52 | 1:57.52 | 334102 | 342928

Bereichsstatus und Fehler

Gewählter Bereich

Dateiname K:\Die Toten Hosen – Diskografie\Albums\2007 – Die DTH-Jubilaeumsedition (17 CD)\12 – Opium fuers Volk\Die toten Hosen – Opium fürs Volk (REMASTERED).wav

Spitzenpegel 98.8 %
Bereichsqualität 100.0 %
Kopie CRC B78062EA
Kopie OK

Keine Fehler aufgetreten

AccurateRip Übersicht

Track 1 nicht in Datenbank enthalten
Track 2 nicht in Datenbank enthalten
Track 3 nicht in Datenbank enthalten
Track 4 nicht in Datenbank enthalten
Track 5 nicht in Datenbank enthalten
Track 6 nicht in Datenbank enthalten
Track 7 nicht in Datenbank enthalten
Track 8 nicht in Datenbank enthalten
Track 9 nicht in Datenbank enthalten
Track 10 nicht in Datenbank enthalten
Track 11 nicht in Datenbank enthalten
Track 12 nicht in Datenbank enthalten
Track 13 nicht in Datenbank enthalten
Track 14 nicht in Datenbank enthalten
Track 15 nicht in Datenbank enthalten
Track 16 nicht in Datenbank enthalten
Track 17 nicht in Datenbank enthalten
Track 18 nicht in Datenbank enthalten
Track 19 nicht in Datenbank enthalten
Track 20 nicht in Datenbank enthalten
Track 21 nicht in Datenbank enthalten

Keiner der Tracks ist in der AccurateRip Datenbank vorhanden

Ende des Statusreports

—-

AUDIOCHECKER v2.0 beta (build 457) – by Dester – opdester@freemail.hu
~~~~~~~~~~~~~~~~~~~~~~~~~~~~~~~~~~
-=== DO NOT EDIT THIS FILE! ===-

Path: …\CD 12 – Opium Fürs Volk (1996)

001 -=- 01. Vaterunser.flac -=- CDDA (100%)
002 -=- 02. Mensch.flac -=- CDDA (100%)
003 -=- 03. Die Fliege.flac -=- CDDA (100%)
004 -=- 04. Die Zehn Gebote.flac -=- CDDA (100%)
005 -=- 05. Böser Wolf.flac -=- CDDA (100%)
006 -=- 06. Nichts Bleibt Für Die Ewigkeit.flac -=- CDDA (100%)
007 -=- 07. Ewig Währt Am Längsten (Dub).flac -=- CDDA (100%)
008 -=- 08. Und So Weiter.flac -=- CDDA (100%)
009 -=- 09. Bonnie & Clyde.flac -=- CDDA (100%)
010 -=- 10. Der Froschkönig.flac -=- CDDA (100%)
011 -=- 11. XTC.flac -=- CDDA (100%)
012 -=- 12. Lügen.flac -=- CDDA (100%)
013 -=- 13. Paradies.flac -=- CDDA (100%)
014 -=- 14. Wir Leben.flac -=- CDDA (100%)
015 -=- 15. Er Denkt, Sie Denkt.flac -=- CDDA (100%)
016 -=- 16. Seelentherapie.flac -=- CDDA (100%)
017 -=- 17. Viva La Revolution.flac -=- CDDA (100%)
018 -=- 18. Zehn Kleine Jägermeister.flac -=- CDDA (100%)
019 -=- 19. Fliegen (‘Pushed Again’, Single, 1998).flac -=- CDDA (100%)
020 -=- 20. Prominentenpsychose (‘Nichts Bleibt Für Die Ewigkeit’, Single, 1995).flac -=- CDDA (100%)
021 -=- 21. Herzglück Harte Welle (‘Bonnie & Clyde’, Single, 1996).flac -=- CDDA (100%)

Summary 100,00% CDDA

66790308


Leave a Reply

Your email address will not be published. Required fields are marked *

This site uses Akismet to reduce spam. Learn how your comment data is processed.