Die Toten Hosen – Opel-Gang




Artist: Die Toten Hosen
Year: 1983
Genre: Punk
Notes: Discogs
Add. Notes:
Cover incl.: Yes
Encoder: FLAC
Bitrate: ~900 kBit/s (44.1 kHz/16 Bit/s)
Log & Cue incl.: Yes
Size: 293,52 MB
Password: “slam” (without ” “)


All Downloads/Hosters are compatible

Download 1
Turbobit.net
Rapidgator.net
KatFile.com
UploadRar.com
Download 2
Turbobit.net
Rapidgator.net
KatFile.com
UploadRar.com
Download 3
Turbobit.net
Rapidgator.net
KatFile.com
UploadRar.com

Tracklist:

1 - Tote Hose - 1:24
2 - Allein Vor Deinem Haus O. Dein Vater Der Boxer - 2:18
3 - Modestadt Düsseldorf - 2:16
4 - Reisefieber - 3:46
5 - Kontakthof - 2:38
6 - Opel-Gang - 1:47
7 - Willi Muß Ins Heim - 2:17
8 - Wehende Fahnen - 3:08
9 - Schwarzer Mann - 2:10
10 - Geld - 2:13
11 - Ülüsü - 2:33
12 - Es Ist Nichts Gewesen - 2:38
13 - Sommernachtstraum - 1:37
14 - Hofgarten - 3:07
15 - Bis Zum Bitteren Ende - 2:19

EAC-Log, CUE-Sheed & NFO:

Click to open spoiler
Exact Audio Copy V0.99 prebeta 3 from 28. July 2007

EAC Auslese-Logdatei vom 10. November 2008, 20:52

Toten Hosen / Opel-Gang

Benutztes Laufwerk : HL-DT-STDVD-ROM GDR-H30N Adapter: 0 ID: 1

Lesemodus : Sicher
Benutze Accurate Stream : Ja
Audio Puffer abgeschaltet : Ja
Benutze C2 Fehlerinformationen : Nein

Leseoffset Korrektur : 6
Überlesen in das Lead-In und Lead-Out : Nein
Fülle fehlende Offsetsample mit Stille auf : Ja
Lösche führende und nachfolgende stille Blöcke : Nein
Null Samples gehen in CRC Berechnungen ein : Ja
Benutzte Schnittstelle : Installierte externe ASPI Schnittstelle

Benutztes Ausgabeformat : Interne WAV Routinen
Sampleformat : 44.100 Hz; 16 Bit; Stereo

TOC der ausgelesenen CD

Track | Start | Länge | Startsektor | Endsektor
——————————————————-
1 | 0:00.00 | 1:29.67 | 0 | 6741
2 | 1:29.67 | 2:27.55 | 6742 | 17821
3 | 3:57.47 | 2:24.43 | 17822 | 28664
4 | 6:22.15 | 3:56.35 | 28665 | 46399
5 | 10:18.50 | 2:47.62 | 46400 | 58986
6 | 13:06.37 | 1:57.08 | 58987 | 67769
7 | 15:03.45 | 2:26.12 | 67770 | 78731
8 | 17:29.57 | 3:20.28 | 78732 | 93759
9 | 20:50.10 | 1:15.30 | 93760 | 99414
10 | 22:05.40 | 2:23.45 | 99415 | 110184
11 | 24:29.10 | 2:42.00 | 110185 | 122334
12 | 27:11.10 | 2:45.27 | 122335 | 134736
13 | 29:56.37 | 1:44.13 | 134737 | 142549
14 | 31:40.50 | 2:17.00 | 142550 | 152824
15 | 33:57.50 | 2:27.50 | 152825 | 163899

Bereichsstatus und Fehler

Gewählter Bereich

Dateiname K:\Die Toten Hosen – Diskografie\Albums\1983 – Opel-Gang\Toten Hosen – Opel-Gang.wav

Spitzenpegel 100.0 %
Bereichsqualität 99.9 %
Kopie CRC 388F0495
Kopie OK

Keine Fehler aufgetreten

AccurateRip Übersicht

Track 1 akkurat gelesen (Zuversicht 3) [59A23FC7]
Track 2 akkurat gelesen (Zuversicht 3) [B4B2CD01]
Track 3 akkurat gelesen (Zuversicht 3) [BF5BA5B8]
Track 4 akkurat gelesen (Zuversicht 3) [E1CF3214]
Track 5 akkurat gelesen (Zuversicht 3) [5A93D475]
Track 6 akkurat gelesen (Zuversicht 3) [C7295CDC]
Track 7 akkurat gelesen (Zuversicht 3) [402A86DF]
Track 8 akkurat gelesen (Zuversicht 3) [DE1F4FCB]
Track 9 akkurat gelesen (Zuversicht 3) [FECB5D0C]
Track 10 akkurat gelesen (Zuversicht 3) [DB6DFD28]
Track 11 akkurat gelesen (Zuversicht 3) [CF20AD3D]
Track 12 akkurat gelesen (Zuversicht 3) [378DBE9D]
Track 13 akkurat gelesen (Zuversicht 3) [9983089C]
Track 14 akkurat gelesen (Zuversicht 3) [16E3A7E9]
Track 15 akkurat gelesen (Zuversicht 3) [9EFFFFCE]

Alle Tracks wurden akkurat gelesen

Ende des Statusreports

REM GENRE “Punk Rock”
REM DATE 1983
REM DISCID C108890F
REM COMMENT “ExactAudioCopy v0.99pb3”
PERFORMER “Toten Hosen”
TITLE “Opel-Gang”
FILE “Toten Hosen – Opel-Gang.flac” WAVE
TRACK 01 AUDIO
TITLE “Tote Hose”
PERFORMER “Toten Hosen”
INDEX 01 00:00:00
TRACK 02 AUDIO
TITLE “Allein Vor Deinem Haus O. Dein Vater Der Boxer”
PERFORMER “Toten Hosen”
INDEX 00 01:28:52
INDEX 01 01:29:67
TRACK 03 AUDIO
TITLE “Modestadt Düsseldorf”
PERFORMER “Toten Hosen”
INDEX 00 03:56:10
INDEX 01 03:57:47
TRACK 04 AUDIO
TITLE “Reisefieber”
PERFORMER “Toten Hosen”
INDEX 00 06:21:35
INDEX 01 06:22:15
TRACK 05 AUDIO
TITLE “Kontakthof”
PERFORMER “Toten Hosen”
INDEX 01 10:18:50
TRACK 06 AUDIO
TITLE “Opel-Gang”
PERFORMER “Toten Hosen”
INDEX 00 13:05:67
INDEX 01 13:06:37
TRACK 07 AUDIO
TITLE “Willi Muß Ins Heim”
PERFORMER “Toten Hosen”
INDEX 00 15:02:32
INDEX 01 15:03:45
TRACK 08 AUDIO
TITLE “Wehende Fahnen”
PERFORMER “Toten Hosen”
INDEX 00 17:29:07
INDEX 01 17:29:57
TRACK 09 AUDIO
TITLE “Schwarzer Mann”
PERFORMER “Toten Hosen”
INDEX 00 20:47:15
INDEX 01 20:50:10
TRACK 10 AUDIO
TITLE “Geld”
PERFORMER “Toten Hosen”
INDEX 00 22:05:17
INDEX 01 22:05:40
TRACK 11 AUDIO
TITLE “Ülüsü”
PERFORMER “Toten Hosen”
INDEX 00 24:26:70
INDEX 01 24:29:10
TRACK 12 AUDIO
TITLE “Es Ist Nichts Gewesen”
PERFORMER “Toten Hosen”
INDEX 00 27:11:00
INDEX 01 27:11:10
TRACK 13 AUDIO
TITLE “Sommernachtstraum”
PERFORMER “Toten Hosen”
INDEX 01 29:56:37
TRACK 14 AUDIO
TITLE “Hofgarten”
PERFORMER “Toten Hosen”
INDEX 00 31:40:27
INDEX 01 31:40:50
TRACK 15 AUDIO
TITLE “Bis Zum Bitteren Ende”
PERFORMER “Toten Hosen”
INDEX 00 33:56:27
INDEX 01 33:57:50


Leave a Reply

Your email address will not be published. Required fields are marked *

This site uses Akismet to reduce spam. Learn how your comment data is processed.