Die Toten Hosen – Opel-Gang (Remastered)




Artist: Die Toten Hosen
Year: 1983/2007
Genre: Punk
Notes: Discogs
Add. Notes: Remastered
Cover incl.: Yes
Encoder: FLAC
Bitrate: ~900 kBit/s (44.1 kHz/16 Bit/s)
Log & Cue incl.: Yes
Size: 96 MB
Password: “slam” (without ” “)


All Downloads/Hosters are compatible

Download 1
KatFile.com
Turbobit.net
Rapidgator.net
Turbobit.net
Download 2
KatFile.com
Turbobit.net
Rapidgator.net
Turbobit.net

Tracklist:

1 - Tote Hose - 1:30
2 - Allein Vor Deinem Haus O. Dein 
Vater Der Boxer - 2:27
3 - Modestadt Düsseldorf - 2:24
4 - Reisefieber - 3:57
5 - Kontakthof - 2:48
6 - Opel-Gang - 1:57
7 - Willi Muß Ins Heim - 2:26
8 - Wehende Fahnen - 3:20
9 - Schwarzer Mann - 1:15
10 - Geld - 2:23
11 - Ülüsü - 2:42
12 - Es Ist Nichts Gewesen - 2:45
13 - Sommernachtstraum - 1:44
14 - Hofgarten - 2:16
15 - Bis Zum Bitteren Ende - 2:27
Extras
16 - Jürgen Englers Party - 1:26
17 - Niemandsland - 2:41
18 - Armee Der Verlierer - 4:23
19 - Opel-Gang - 1:59
20 - Schöne Bescherung - 3:02
21 - Willis Weisse Weihnacht - 2:34
22 - Knecht Ruprechts Letzte Fahrt - 
3:46
23 - –Die Toten Hosen Mit Kurt 
Raab - Kriminaltango - 
3:32
24 - Allein Vor Deinem Haus O. Dein 
Vater Der Boxer - 
2:25
25 - Es Ist Vorbei - 3:08
26 - Die Abenteuer Des Kleinen 
Haevelmann - 2:28
27 - Frühstückskorn - 1:57
28 - Bis Zum Bitteren Ende - 3:08
29 - Wir Sind Bereit - 1:59
30 - Hip Hop Bommi Bop - 4:33

EAC-Log, CUE-Sheed & NFO:

Click to open spoiler
Exact Audio Copy V0.99 prebeta 3 from 28. July 2007

EAC Auslese-Logdatei vom 11. November 2008, 12:29

Die Toten Hosen / Opel Gang

Benutztes Laufwerk : HL-DT-STDVD-ROM GDR-H30N Adapter: 0 ID: 1

Lesemodus : Sicher
Benutze Accurate Stream : Ja
Audio Puffer abgeschaltet : Ja
Benutze C2 Fehlerinformationen : Nein

Leseoffset Korrektur : 6
Überlesen in das Lead-In und Lead-Out : Nein
Fülle fehlende Offsetsample mit Stille auf : Ja
Lösche führende und nachfolgende stille Blöcke : Nein
Null Samples gehen in CRC Berechnungen ein : Ja
Benutzte Schnittstelle : Installierte externe ASPI Schnittstelle

Benutztes Ausgabeformat : Interne WAV Routinen
Sampleformat : 44.100 Hz; 16 Bit; Stereo

TOC der ausgelesenen CD

Track | Start | Länge | Startsektor | Endsektor
——————————————————-
1 | 0:00.00 | 1:31.02 | 0 | 6826
2 | 1:31.02 | 2:28.06 | 6827 | 17932
3 | 3:59.08 | 2:25.02 | 17933 | 28809
4 | 6:24.10 | 3:57.23 | 28810 | 46607
5 | 10:21.33 | 2:48.15 | 46608 | 59222
6 | 13:09.48 | 1:57.34 | 59223 | 68031
7 | 15:07.07 | 2:26.28 | 68032 | 79009
8 | 17:33.35 | 3:20.65 | 79010 | 94074
9 | 20:54.25 | 1:15.48 | 94075 | 99747
10 | 22:09.73 | 2:24.09 | 99748 | 110556
11 | 24:34.07 | 2:42.17 | 110557 | 122723
12 | 27:16.24 | 2:45.46 | 122724 | 135144
13 | 30:01.70 | 1:44.44 | 135145 | 142988
14 | 31:46.39 | 2:17.06 | 142989 | 153269
15 | 34:03.45 | 2:27.46 | 153270 | 164340
16 | 36:31.16 | 1:26.38 | 164341 | 170828
17 | 37:57.54 | 2:41.13 | 170829 | 182916
18 | 40:38.67 | 4:23.62 | 182917 | 202703
19 | 45:02.54 | 1:59.21 | 202704 | 211649
20 | 47:02.00 | 3:02.25 | 211650 | 225324
21 | 50:04.25 | 2:35.03 | 225325 | 236952
22 | 52:39.28 | 3:46.42 | 236953 | 253944
23 | 56:25.70 | 3:32.26 | 253945 | 269870
24 | 59:58.21 | 2:26.05 | 269871 | 280825
25 | 62:24.26 | 3:09.00 | 280826 | 295000
26 | 65:33.26 | 2:29.04 | 295001 | 306179
27 | 68:02.30 | 1:57.23 | 306180 | 314977
28 | 69:59.53 | 3:08.36 | 314978 | 329113
29 | 73:08.14 | 1:59.19 | 329114 | 338057
30 | 75:07.33 | 4:34.06 | 338058 | 358613

Bereichsstatus und Fehler

Gewählter Bereich

Dateiname K:\Die Toten Hosen – Diskografie\Albums\2007 – Die DTH-Jubilaeumsedition (17 CD)\01 – Opel – Gang\Die Toten Hosen – Opel Gang.wav

Spitzenpegel 100.0 %
Bereichsqualität 100.0 %
Kopie CRC 2E3EFC76
Kopie OK

Keine Fehler aufgetreten

AccurateRip Übersicht

Track 1 nicht in Datenbank enthalten
Track 2 nicht in Datenbank enthalten
Track 3 nicht in Datenbank enthalten
Track 4 nicht in Datenbank enthalten
Track 5 nicht in Datenbank enthalten
Track 6 nicht in Datenbank enthalten
Track 7 nicht in Datenbank enthalten
Track 8 nicht in Datenbank enthalten
Track 9 nicht in Datenbank enthalten
Track 10 nicht in Datenbank enthalten
Track 11 nicht in Datenbank enthalten
Track 12 nicht in Datenbank enthalten
Track 13 nicht in Datenbank enthalten
Track 14 nicht in Datenbank enthalten
Track 15 nicht in Datenbank enthalten
Track 16 nicht in Datenbank enthalten
Track 17 nicht in Datenbank enthalten
Track 18 nicht in Datenbank enthalten
Track 19 nicht in Datenbank enthalten
Track 20 nicht in Datenbank enthalten
Track 21 nicht in Datenbank enthalten
Track 22 nicht in Datenbank enthalten
Track 23 nicht in Datenbank enthalten
Track 24 nicht in Datenbank enthalten
Track 25 nicht in Datenbank enthalten
Track 26 nicht in Datenbank enthalten
Track 27 nicht in Datenbank enthalten
Track 28 nicht in Datenbank enthalten
Track 29 nicht in Datenbank enthalten
Track 30 nicht in Datenbank enthalten

Keiner der Tracks ist in der AccurateRip Datenbank vorhanden

Ende des Statusreports

AUDIOCHECKER v2.0 beta (build 457) – by Dester – opdester@freemail.hu
~~~~~~~~~~~~~~~~~~~~~~~~~~~~~~~~~~
-=== DO NOT EDIT THIS FILE! ===-

Path: …\CD 01 – Opel-Gang (1983)

001 -=- 01. Tote Hose.flac -=- CDDA (100%)
002 -=- 02. Allein Vor Deinem Haus O. Dein Vater Der Boxer.flac -=- CDDA (100%)
003 -=- 03. Modestadt Düsseldorf.flac -=- CDDA (100%)
004 -=- 04. Reisefieber.flac -=- CDDA (100%)
005 -=- 05. Kontakthof.flac -=- CDDA (100%)
006 -=- 06. Opel-Gang.flac -=- CDDA (100%)
007 -=- 07. Willi Muss Ins Heim.flac -=- CDDA (100%)
008 -=- 08. Wehende Fahnen.flac -=- CDDA (100%)
009 -=- 09. Schwarzer Mann.flac -=- CDDA (100%)
010 -=- 10. Geld.flac -=- CDDA (100%)
011 -=- 11. Ülüsü.flac -=- CDDA (100%)
012 -=- 12. Es Ist Nichts Gewesen.flac -=- CDDA (100%)
013 -=- 13. Sommernachtstraum.flac -=- CDDA (100%)
014 -=- 14. Hofgarten.flac -=- CDDA (100%)
015 -=- 15. Bis Zum Bitteren Ende.flac -=- CDDA (100%)
016 -=- 16. Jürgen Englers Party.flac -=- CDDA (100%)
017 -=- 17. Niemandsland.flac -=- CDDA (100%)
018 -=- 18. Armee Der Verlierer.flac -=- CDDA (100%)
019 -=- 19. Opel-Gang2.flac -=- CDDA (100%)
020 -=- 20. Schöne Bescherung.flac -=- CDDA (100%)
021 -=- 21. Willi’s Weisse Weihnacht.flac -=- CDDA (100%)
022 -=- 22. Knecht Rupprechts Letzte Fahrt.flac -=- CDDA (100%)
023 -=- 23. Kriminaltango.flac -=- CDDA (100%)
024 -=- 24. Allein Vor Deinem Haus O. Dein Vater Der Boxer2.flac -=- CDDA (100%)
025 -=- 25. Es Ist Vorbei.flac -=- CDDA (100%)
026 -=- 26. Die Abenteuer Des Kleinen Haevelmann.flac -=- CDDA (100%)
027 -=- 27. Frühstückskorn.flac -=- CDDA (100%)
028 -=- 28. Bis Zum Bitteren Ende 2.flac -=- CDDA (100%)
029 -=- 29. Wir Sind Bereit.flac -=- CDDA (100%)
030 -=- 30. Hip Hop Bommi Bop.flac -=- CDDA (100%)

Summary 100,00% CDDA

204141652


Leave a Reply

Your email address will not be published. Required fields are marked *

This site uses Akismet to reduce spam. Learn how your comment data is processed.