Die Toten Hosen – Never mind the Hosen (Remastered)




Artist: Die Toten Hosen
Year: 1987/2007
Genre: Punk
Notes: Discogs
Add. Notes: Remastered
Cover incl.: Yes
Encoder: FLAC
Bitrate: ~900 kBit/s (44.1 kHz/16 Bit/s)
Log & Cue incl.: Yes
Size: 416 MB
Password: “slam” (without ” “)


All Downloads/Hosters are compatible

Download 1
KatFile.com
Turbobit.net
Rapidgator.net
Turbobit.net
Download 2
KatFile.com
Turbobit.net
Rapidgator.net
Turbobit.net

Tracklist:

1  Itsy Bitsy Teenie Weenie Honolulu-
Strand-Bikini 
2  Alle Mädchen Wollen Küssen  
3  Im Wagen Vor Mir  
4  Für Gaby Tu' Ich Alles  
5  Wir  
6  Und Sowas Nennst Du Liebe  
7  Kein Gnadenbrot  
8  Halbstark  
9  Die Sauerkrautpolka  
10  Wenn Du Mal Allein Bist  
11  Zwei Mädchen Aus Germany  
12  Mein Hobby Sind Die Girls  
13  Medley  
Neu
14  Motorbiene ("Never Mind", 
Demos, 1987) 
15  Wärst Du Doch In Düsseldorf 
Geblieben ("Never 
Mind", Demos, 1987)  
16  Schade Um Die Rosen ("Never 
Mind", Demos, 
1987)  
17  Popokatepetl-Twist ("Never 
Mind", Demos, 
1987)  
18  Ich Steh An Der Bar Und Habe 
Kein Geld 
19  Itsy Bitsy Teenie Weenie Yellow-
Polkadot-Bikini 
(Single, 1987)  
20  1000 Taler (Andi Frege & "Die 
Flinger 
Domspatzen")  
21  Baby, Du Sollst Nicht Weinen 
(Andi Frege & "Die 
Flinger Domspatzen")

EAC-Log, CUE-Sheed & NFO:

Click to open spoiler
Exact Audio Copy V0.99 prebeta 3 from 28. July 2007

EAC Auslese-Logdatei vom 8. November 2008, 12:42

Die Toten Hosen / Never Mind The Hosen – Here’s Die Roten Rosen aus Düsseldorf

Benutztes Laufwerk : HL-DT-STDVD-ROM GDR-H30N Adapter: 0 ID: 1

Lesemodus : Sicher
Benutze Accurate Stream : Ja
Audio Puffer abgeschaltet : Ja
Benutze C2 Fehlerinformationen : Nein

Leseoffset Korrektur : 6
Überlesen in das Lead-In und Lead-Out : Nein
Fülle fehlende Offsetsample mit Stille auf : Ja
Lösche führende und nachfolgende stille Blöcke : Nein
Null Samples gehen in CRC Berechnungen ein : Ja
Benutzte Schnittstelle : Installierte externe ASPI Schnittstelle

Benutztes Ausgabeformat : Interne WAV Routinen
Sampleformat : 44.100 Hz; 16 Bit; Stereo

TOC der ausgelesenen CD

Track | Start | Länge | Startsektor | Endsektor
——————————————————-
1 | 0:00.00 | 1:59.38 | 0 | 8962
2 | 1:59.38 | 1:33.11 | 8963 | 15948
3 | 3:32.49 | 3:40.19 | 15949 | 32467
4 | 7:12.68 | 2:39.38 | 32468 | 44430
5 | 9:52.31 | 3:50.39 | 44431 | 61719
6 | 13:42.70 | 2:40.48 | 61720 | 73767
7 | 16:23.43 | 2:48.71 | 73768 | 86438
8 | 19:12.39 | 2:35.68 | 86439 | 98131
9 | 21:48.32 | 1:59.66 | 98132 | 107122
10 | 23:48.23 | 3:06.41 | 107123 | 121113
11 | 26:54.64 | 2:21.55 | 121114 | 131743
12 | 29:16.44 | 2:56.56 | 131744 | 144999
13 | 32:13.25 | 4:25.72 | 145000 | 164946
14 | 36:39.22 | 1:59.14 | 164947 | 173885
15 | 38:38.36 | 2:22.39 | 173886 | 184574
16 | 41:01.00 | 2:22.71 | 184575 | 195295
17 | 43:23.71 | 2:05.05 | 195296 | 204675
18 | 45:29.01 | 1:41.72 | 204676 | 212322
19 | 47:10.73 | 1:40.26 | 212323 | 219848
20 | 48:51.24 | 3:28.63 | 219849 | 235511
21 | 52:20.12 | 2:01.27 | 235512 | 244613

Bereichsstatus und Fehler

Gewählter Bereich

Dateiname K:\Die Toten Hosen – Diskografie\Albums\2007 – Die DTH-Jubilaeumsedition (17 CD)\04 – Never Mind The Hosen\Die Toten Hosen – Never Mind The Hosen – Here’s Die Roten Rosen aus Düsseldorf.wav

Spitzenpegel 100.0 %
Bereichsqualität 99.9 %
Kopie CRC 1A7D732A
Kopie OK

Keine Fehler aufgetreten

AccurateRip Übersicht

Track 1 nicht in Datenbank enthalten
Track 2 nicht in Datenbank enthalten
Track 3 nicht in Datenbank enthalten
Track 4 nicht in Datenbank enthalten
Track 5 nicht in Datenbank enthalten
Track 6 nicht in Datenbank enthalten
Track 7 nicht in Datenbank enthalten
Track 8 nicht in Datenbank enthalten
Track 9 nicht in Datenbank enthalten
Track 10 nicht in Datenbank enthalten
Track 11 nicht in Datenbank enthalten
Track 12 nicht in Datenbank enthalten
Track 13 nicht in Datenbank enthalten
Track 14 nicht in Datenbank enthalten
Track 15 nicht in Datenbank enthalten
Track 16 nicht in Datenbank enthalten
Track 17 nicht in Datenbank enthalten
Track 18 nicht in Datenbank enthalten
Track 19 nicht in Datenbank enthalten
Track 20 nicht in Datenbank enthalten
Track 21 nicht in Datenbank enthalten

Keiner der Tracks ist in der AccurateRip Datenbank vorhanden

Ende des Statusreports

AUDIOCHECKER v2.0 beta (build 457) – by Dester – opdester@freemail.hu
~~~~~~~~~~~~~~~~~~~~~~~~~~~~~~~~~~
-=== DO NOT EDIT THIS FILE! ===-

Path: …\CD 04 – Never Mind The Hosen (1987)

001 -=- 01. Itsy Bitsy Teenie Weenie Honululu-Strand-Bikini.flac -=- CDDA (100%)
002 -=- 02. Alle Mädchen Wollen Küssen.flac -=- CDDA (85%)
003 -=- 03. Im Wagen Vor Mir.flac -=- CDDA (100%)
004 -=- 04. Für Gaby Tu Ich Alles.flac -=- CDDA (100%)
005 -=- 05. Wir.flac -=- CDDA (54%)
006 -=- 06. Und Sowas Nennst Du Liebe.flac -=- CDDA (100%)
007 -=- 07. Kein Gnadenbrot.flac -=- CDDA (100%)
008 -=- 08. Halbstark.flac -=- CDDA (100%)
009 -=- 09. Die Sauerkrautpolka.flac -=- CDDA (58%)
010 -=- 10. Wenn Du Mal Allein Bist.flac -=- CDDA (100%)
011 -=- 11. Zwei Mädchen Aus Germany.flac -=- CDDA (100%)
012 -=- 12. Mein Hobby Sind Die Girls.flac -=- CDDA (99%)
013 -=- 13. Medley.flac -=- CDDA (100%)
014 -=- 14. Motorbiene.flac -=- CDDA (100%)
015 -=- 15. Wärst Du Doch In Düsseldorf Geblieben.flac -=- CDDA (99%)
016 -=- 16. Schade Um Die Rosen.flac -=- CDDA (100%)
017 -=- 17. Ich Steh An Der Bar Und Habe Kein Geld.flac -=- CDDA (100%)
018 -=- 18. Popokatepetl-Twist.flac -=- CDDA (100%)
019 -=- 19. 1000 Taler.flac -=- CDDA (100%)
020 -=- 20. Baby, Du Sollst Nicht Weinen.flac -=- CDDA (100%)
021 -=- 21. Itsy Bitsy Teenie Weenie Yellow-Polkadot-Bikini.flac -=- CDDA (100%)

Summary 95,00% CDDA

159989108


Leave a Reply

Your email address will not be published. Required fields are marked *

This site uses Akismet to reduce spam. Learn how your comment data is processed.