Die Toten Hosen – Love, Peace & Money (Remastered)




No Cover available

Artist: Die Toten Hosen
Year: 1994/2007
Genre: Punk
Notes: Discogs
Add. Notes: Remastered
Watch Songs on: YouTube
Cover incl.: Yes
Encoder: FLAC
Bitrate: ~1100 kBit/s (44.1 kHz/16 Bit/s)
Log & Cue incl.: Yes
Size: 593 MB
Password: “slam” (without ” “)


All Downloads/Hosters are compatible

Download 1
KatFile.com
Turbobit.net
Rapidgator.net
Share-online.biz
Download 2
KatFile.com
Turbobit.net
Rapidgator.net
Share-online.biz

Tracklist:

The return of Alex (Hier kommt Alex)
Year 2000 (Alles Wird Gut)
All For The Sake Of Love (Alles Aus 
Liebe)
Lovesong (Liebeslied)
Sexual
Diary of a lover
Put Your Money Where Your Mouth 
Is (Buy Me!) (Kauf 
Mich!)
Love Is Here (Liebesspieler)
More & More (Mehr Davon)
My Land (Willkommen In 
Deutschland)
Wasted Years (All Die Ganzen Jahre)
Perfect Criminal (Musterbeispiel)
Love machine
Chaos Bros. 
(Katastrophenkommando)
Guantanamera
In control
Stand up (Steh auf wenn du am 
Boden bist)
Dog Eat Dog (Friss Oder Stirb)
We Will Be Heroes (Venceremos – 
Wir Werden Siegen)
Wasted Years (All Die Ganzen Jahre)

EAC-Log, CUE-Sheed & NFO:

Click to open spoiler
Exact Audio Copy V0.99 prebeta 3 from 28. July 2007

EAC Auslese-Logdatei vom 10. November 2008, 0:33

Die Toten Hosen / Love, Peace & Money

Benutztes Laufwerk : HL-DT-STDVD-ROM GDR-H30N Adapter: 0 ID: 1

Lesemodus : Sicher
Benutze Accurate Stream : Ja
Audio Puffer abgeschaltet : Ja
Benutze C2 Fehlerinformationen : Nein

Leseoffset Korrektur : 6
Überlesen in das Lead-In und Lead-Out : Nein
Fülle fehlende Offsetsample mit Stille auf : Ja
Lösche führende und nachfolgende stille Blöcke : Nein
Null Samples gehen in CRC Berechnungen ein : Ja
Benutzte Schnittstelle : Installierte externe ASPI Schnittstelle

Benutztes Ausgabeformat : Interne WAV Routinen
Sampleformat : 44.100 Hz; 16 Bit; Stereo

TOC der ausgelesenen CD

Track | Start | Länge | Startsektor | Endsektor
——————————————————-
1 | 0:00.00 | 4:29.47 | 0 | 20221
2 | 4:29.47 | 3:36.17 | 20222 | 36438
3 | 8:05.64 | 4:31.27 | 36439 | 56790
4 | 12:37.16 | 3:41.10 | 56791 | 73375
5 | 16:18.26 | 4:26.42 | 73376 | 93367
6 | 20:44.68 | 4:02.63 | 93368 | 111580
7 | 24:47.56 | 3:28.73 | 111581 | 127253
8 | 28:16.54 | 2:50.60 | 127254 | 140063
9 | 31:07.39 | 5:13.43 | 140064 | 163581
10 | 36:21.07 | 3:55.60 | 163582 | 181266
11 | 40:16.67 | 3:18.01 | 181267 | 196117
12 | 43:34.68 | 3:58.62 | 196118 | 214029
13 | 47:33.55 | 3:18.67 | 214030 | 228946
14 | 50:52.47 | 4:27.08 | 228947 | 248979
15 | 55:19.55 | 3:28.35 | 248980 | 264614
16 | 58:48.15 | 3:16.20 | 264615 | 279334
17 | 62:04.35 | 3:52.64 | 279335 | 296798
18 | 65:57.24 | 3:43.38 | 296799 | 313561
19 | 69:40.62 | 3:41.17 | 313562 | 330153
20 | 73:22.04 | 4:46.19 | 330154 | 351622

Bereichsstatus und Fehler

Gewählter Bereich

Dateiname K:\Die Toten Hosen – Diskografie\Albums\2007 – Die DTH-Jubilaeumsedition (17 CD)\11 – Love,Peace & Money\Die Toten Hosen – Love, Peace & Money.wav

Spitzenpegel 100.0 %
Bereichsqualität 99.9 %
Kopie CRC 9B720DD3
Kopie OK

Keine Fehler aufgetreten

AccurateRip Übersicht

Track 1 nicht in Datenbank enthalten
Track 2 nicht in Datenbank enthalten
Track 3 nicht in Datenbank enthalten
Track 4 nicht in Datenbank enthalten
Track 5 nicht in Datenbank enthalten
Track 6 nicht in Datenbank enthalten
Track 7 nicht in Datenbank enthalten
Track 8 nicht in Datenbank enthalten
Track 9 nicht in Datenbank enthalten
Track 10 nicht in Datenbank enthalten
Track 11 nicht in Datenbank enthalten
Track 12 nicht in Datenbank enthalten
Track 13 nicht in Datenbank enthalten
Track 14 nicht in Datenbank enthalten
Track 15 nicht in Datenbank enthalten
Track 16 nicht in Datenbank enthalten
Track 17 nicht in Datenbank enthalten
Track 18 nicht in Datenbank enthalten
Track 19 nicht in Datenbank enthalten
Track 20 nicht in Datenbank enthalten

Keiner der Tracks ist in der AccurateRip Datenbank vorhanden

Ende des Statusreports

AUDIOCHECKER v2.0 beta (build 457) – by Dester – opdester@freemail.hu
~~~~~~~~~~~~~~~~~~~~~~~~~~~~~~~~~~
-=== DO NOT EDIT THIS FILE! ===-

Path: …\CD 11 – Love, Peace & Money (1994)

001 -=- 01. The Return Of Alex.flac -=- CDDA (100%)
002 -=- 02. Year 2000.flac -=- CDDA (100%)
003 -=- 03. All For The Sake Of Love.flac -=- CDDA (100%)
004 -=- 04. Lovesong.flac -=- CDDA (99%)
005 -=- 05. Sexual.flac -=- CDDA (100%)
006 -=- 06. Diary Of A Lover.flac -=- CDDA (100%)
007 -=- 07. Put Your Money Where Your Mouth Is (Buy Me).flac -=- CDDA (100%)
008 -=- 08. Love Is Here.flac -=- CDDA (100%)
009 -=- 09. More & More.flac -=- CDDA (100%)
010 -=- 10. My Land.flac -=- CDDA (100%)
011 -=- 11. Wasted Years.flac -=- CDDA (100%)
012 -=- 12. Perfect Criminal.flac -=- CDDA (100%)
013 -=- 13. Love Machine.flac -=- CDDA (100%)
014 -=- 14. Chaos Bros..flac -=- CDDA (100%)
015 -=- 15. Guantanamera.flac -=- CDDA (100%)
016 -=- 16. In Control.flac -=- CDDA (99%)
017 -=- 17. Stand Up.flac -=- CDDA (100%)
018 -=- 18. Dog Eat Dog.flac -=- CDDA (100%)
019 -=- 19. We Will Be Heroes.flac -=- CDDA (100%)
020 -=- 20. Wasted Years.flac -=- CDDA (100%)

Summary 99,90% CDDA

30751460


Leave a Reply

Your email address will not be published. Required fields are marked *

This site uses Akismet to reduce spam. Learn how your comment data is processed.