Die Toten Hosen – Learning English, Lesson One




Artist: Die Toten Hosen
Year: 1991
Genre: Punk
Notes: Discogs
Add. Notes:
Cover incl.: Yes
Encoder: FLAC
Bitrate: ~900 kBit/s (44.1 kHz/16 Bit/s)
Log & Cue incl.: Yes
Size: 524,77 MB
Password: “slam” (without ” “)


All Downloads/Hosters are compatible

Download 1
NitroFlare.com
KatFile.com
Turbobit.net
Rapidgator.net
UploadRar.com
Download 2
NitroFlare.com
KatFile.com
Turbobit.net
Rapidgator.net
UploadRar.com

Tracklist:

1 - Step One - 0:31
2 - Blitzkrieg Bop - 1:50
3 - Brickfield Nights - 3:34
4 - Step Two - 0:11
5 - Just Thirteen - 2:30
6 - If The Kids Are United - 3:08
7 - Nasty Nasty - 2:06
8 - Step Three - 0:17
9 - Dirty Pictures - 2:15
10 - Baby Baby - 3:13
11 - Gary Gilmore's Eyes - 2:15
12 - Born To Lose - 3:21
13 - How The Rockafellas Went To Hollywood - 0:18
14 - Do You Remember - 3:26
15 - Carnival In Rio (Punk Was) - 3:08
16 - Step Four - 0:18
17 - Right To Work - 3:03
18 - Whole Wide World - 3:19
19 - Smash It Up - 2:57
20 - Stranglehold - 2:11
21 - Step Five - 0:22
22 - Love And A Molotov Cocktail - 2:30
23 - Do Anything You Wanna Do - 4:27
24 - Goodbye From Janet & John - 1:01

EAC-Log, CUE-Sheed & NFO:

Click to open spoiler
Exact Audio Copy V0.99 prebeta 4 from 23. January 2008

EAC Auslese-Logdatei vom 15. März 2009, 13:07

Die Toten Hosen / Learning English – Lesson I

Benutztes Laufwerk : HL-DT-STDVD-ROM GDR-H30N Adapter: 0 ID: 1

Lesemodus : Sicher
Benutze Accurate Stream : Ja
Audio Puffer abgeschaltet : Ja
Benutze C2 Fehlerinformationen : Nein

Leseoffset Korrektur : 6
Überlesen in das Lead-In und Lead-Out : Nein
Fülle fehlende Offsetsample mit Stille auf : Ja
Lösche führende und nachfolgende stille Blöcke : Nein
Null Samples gehen in CRC Berechnungen ein : Ja
Benutzte Schnittstelle : Installierte externe ASPI Schnittstelle

Benutztes Ausgabeformat : Interne WAV Routinen
Sampleformat : 44.100 Hz; 16 Bit; Stereo

TOC der ausgelesenen CD

Track | Start | Länge | Startsektor | Endsektor
——————————————————-
1 | 0:00.00 | 0:31.42 | 0 | 2366
2 | 0:31.42 | 1:50.03 | 2367 | 10619
3 | 2:21.45 | 3:34.05 | 10620 | 26674
4 | 5:55.50 | 0:11.45 | 26675 | 27544
5 | 6:07.20 | 2:29.70 | 27545 | 38789
6 | 8:37.15 | 3:08.12 | 38790 | 52901
7 | 11:45.27 | 2:06.55 | 52902 | 62406
8 | 13:52.07 | 0:17.30 | 62407 | 63711
9 | 14:09.37 | 2:15.30 | 63712 | 73866
10 | 16:24.67 | 3:13.13 | 73867 | 88354
11 | 19:38.05 | 2:14.72 | 88355 | 98476
12 | 21:53.02 | 3:21.48 | 98477 | 113599
13 | 25:14.50 | 0:18.40 | 113600 | 114989
14 | 25:33.15 | 3:26.55 | 114990 | 130494
15 | 28:59.70 | 3:07.05 | 130495 | 144524
16 | 32:07.00 | 0:18.05 | 144525 | 145879
17 | 32:25.05 | 3:04.57 | 145880 | 159736
18 | 35:29.62 | 3:19.00 | 159737 | 174661
19 | 38:48.62 | 2:56.35 | 174662 | 187896
20 | 41:45.22 | 2:11.45 | 187897 | 197766
21 | 43:56.67 | 0:22.73 | 197767 | 199489
22 | 44:19.65 | 2:30.50 | 199490 | 210789
23 | 46:50.40 | 4:28.22 | 210790 | 230911
24 | 51:18.62 | 0:59.65 | 230912 | 235401

Bereichsstatus und Fehler

Gewählter Bereich

Dateiname K:\Die Toten Hosen – Diskografie\Albums\1991 – Learning English – Lesson 1\Die Toten Hosen – Learning English – Lesson I.wav

Spitzenpegel 100.0 %
Bereichsqualität 100.0 %
Kopie CRC E53F6DBB
Kopie OK

Keine Fehler aufgetreten

AccurateRip Übersicht

Track 1 akkurat gelesen (Zuversicht 2) [6EAC9B15]
Track 2 akkurat gelesen (Zuversicht 2) [219C53CE]
Track 3 akkurat gelesen (Zuversicht 2) [BBA0F998]
Track 4 akkurat gelesen (Zuversicht 2) [0F100E1C]
Track 5 akkurat gelesen (Zuversicht 2) [38B2CEB0]
Track 6 akkurat gelesen (Zuversicht 2) [C42FEE4D]
Track 7 akkurat gelesen (Zuversicht 2) [C19F7339]
Track 8 akkurat gelesen (Zuversicht 2) [F2C03B11]
Track 9 akkurat gelesen (Zuversicht 2) [CDEB481C]
Track 10 akkurat gelesen (Zuversicht 2) [E926C122]
Track 11 akkurat gelesen (Zuversicht 2) [2BC1482A]
Track 12 akkurat gelesen (Zuversicht 2) [DE592F3A]
Track 13 akkurat gelesen (Zuversicht 2) [87A3CA9B]
Track 14 akkurat gelesen (Zuversicht 2) [88F36249]
Track 15 akkurat gelesen (Zuversicht 2) [BA3D7FD2]
Track 16 akkurat gelesen (Zuversicht 2) [AE3E3009]
Track 17 akkurat gelesen (Zuversicht 2) [5625AB81]
Track 18 akkurat gelesen (Zuversicht 2) [5FF3FBAB]
Track 19 akkurat gelesen (Zuversicht 2) [3A8379DC]
Track 20 akkurat gelesen (Zuversicht 2) [70A172A2]
Track 21 akkurat gelesen (Zuversicht 2) [D665630D]
Track 22 akkurat gelesen (Zuversicht 2) [0BA86462]
Track 23 akkurat gelesen (Zuversicht 2) [DFB6A029]
Track 24 akkurat gelesen (Zuversicht 2) [A738EA31]

Alle Tracks wurden akkurat gelesen

Ende des Statusreports

REM GENRE Rock
REM DATE 1991
REM DISCID 400C4218
REM COMMENT “ExactAudioCopy v0.99pb4”
PERFORMER “Die Toten Hosen”
TITLE “Learning English – Lesson I”
FILE “Die Toten Hosen – Learning English – Lesson I.flac” WAVE
TRACK 01 AUDIO
TITLE “Learning English * Step One”
PERFORMER “Die Toten Hosen”
INDEX 01 00:00:00
TRACK 02 AUDIO
TITLE “Blitzkrieg Bop”
PERFORMER “Die Toten Hosen”
INDEX 01 00:31:42
TRACK 03 AUDIO
TITLE “Brickfield Nights”
PERFORMER “Die Toten Hosen”
INDEX 01 02:21:45
TRACK 04 AUDIO
TITLE “Step Two”
PERFORMER “Die Toten Hosen”
INDEX 01 05:55:50
TRACK 05 AUDIO
TITLE “Just Thirteen”
PERFORMER “Die Toten Hosen”
INDEX 01 06:07:20
TRACK 06 AUDIO
TITLE “If The Kids Are United”
PERFORMER “Die Toten Hosen”
INDEX 01 08:37:15
TRACK 07 AUDIO
TITLE “Nasty Nasty”
PERFORMER “Die Toten Hosen”
INDEX 01 11:45:27
TRACK 08 AUDIO
TITLE “Step Three”
PERFORMER “Die Toten Hosen”
INDEX 01 13:52:07
TRACK 09 AUDIO
TITLE “Dirty Pictures”
PERFORMER “Die Toten Hosen”
INDEX 01 14:09:37
TRACK 10 AUDIO
TITLE “Baby Baby”
PERFORMER “Die Toten Hosen”
INDEX 01 16:24:67
TRACK 11 AUDIO
TITLE “Gary Gilmore´s Eyes”
PERFORMER “Die Toten Hosen”
INDEX 01 19:38:05
TRACK 12 AUDIO
TITLE “Born To Lose”
PERFORMER “Die Toten Hosen”
INDEX 01 21:53:02
TRACK 13 AUDIO
TITLE “How The Rockafellas Went To Hollywood”
PERFORMER “Die Toten Hosen”
INDEX 01 25:14:50
TRACK 14 AUDIO
TITLE “Do You Remember”
PERFORMER “Die Toten Hosen”
INDEX 01 25:33:15
TRACK 15 AUDIO
TITLE “Carnival in Rio (Punk Was)”
PERFORMER “Die Toten Hosen”
INDEX 01 28:59:70
TRACK 16 AUDIO
TITLE “Step Four”
PERFORMER “Die Toten Hosen”
INDEX 01 32:07:00
TRACK 17 AUDIO
TITLE “Right To Work”
PERFORMER “Die Toten Hosen”
INDEX 01 32:25:05
TRACK 18 AUDIO
TITLE “Whole Wide World”
PERFORMER “Die Toten Hosen”
INDEX 00 35:28:15
INDEX 01 35:29:62
TRACK 19 AUDIO
TITLE “Smash It Up”
PERFORMER “Die Toten Hosen”
INDEX 01 38:48:62
TRACK 20 AUDIO
TITLE “Stranglehold”
PERFORMER “Die Toten Hosen”
INDEX 01 41:45:22
TRACK 21 AUDIO
TITLE “Step Five”
PERFORMER “Die Toten Hosen”
INDEX 01 43:56:67
TRACK 22 AUDIO
TITLE “Love And A Molotov Cocktail”
PERFORMER “Die Toten Hosen”
INDEX 01 44:19:65
TRACK 23 AUDIO
TITLE “Do Anything You Wanna Do”
PERFORMER “Die Toten Hosen”
INDEX 01 46:50:40
TRACK 24 AUDIO
TITLE “Goodbye From Janet & John”
PERFORMER “Die Toten Hosen”
INDEX 01 51:18:62


Leave a Reply

Your email address will not be published. Required fields are marked *

This site uses Akismet to reduce spam. Learn how your comment data is processed.