Die Toten Hosen – Learning English Lesson 1 (Remastered)




Artist: Die Toten Hosen
Year: 1991
Genre: Punk
Notes: Discogs
Add. Notes: Remastered
Cover incl.: No
Encoder: FLAC
Bitrate: ~900 kBit/s (44.1 kHz/16 Bit/s)
Log & Cue incl.: Yes
Size: 595 MB
Password: “slam” (without ” “)


All Downloads/Hosters are compatible

Download 1
KatFile.com
Turbobit.net
Rapidgator.net
Turbobit.net
Download 2
KatFile.com
Turbobit.net
Rapidgator.net
Turbobit.net

Tracklist:

1 - Learning English - Step One - 
0:32
2 - Blitzkrieg Bop - 1:50
3 - Brickfield Nights - 3:34
4 - Step Two - 0:11
5 - Just Thirteen - 2:30
6 - If The Kids Are United - 3:08
7 - Nasty Nasty - 2:07
8 - Step Three - 0:17
9 - Dirty Pictures - 2:16
10 - Baby Baby - 3:13
11 - Gary Gilmores Eyes - 2:15
12 - Born To Loose - 3:22
13 - How The Rockafellas Went To 
Hollywood - 0:19
14 - Do You Remember - 3:27
15 - Carnival In Rio (Punk Was) - 
3:07
16 - Step Four - 0:18
17 - Right To Work - 3:05
18 - Whole Wide World - 3:19
19 - Smash It Up - 2:57
20 - Stranglehold - 2:11
21 - Step Five - 0:23
22 - Love And A Molotov Cocktail - 
2:31
23 - Do Anything You Wanna Do - 
4:28
24 - Goodbye From Janet & John - 
1:01
Lesson 2
25 - No One Is Innocent - 3:02
26 - Should I Stay Or Should I Go - 
2:43
27 - Rockaway Beach - 2:00
28 - Eddie And Sheena - 4:25
29 - Richmond - 2:40
30 - In The Still Of The Night - 4:12
31 - Anything But Love - 3:59
32 - I Met Her At The Jet Grill - 1:57

EAC-Log, CUE-Sheed & NFO:

Click to open spoiler
Exact Audio Copy V0.99 prebeta 3 from 28. July 2007

EAC Auslese-Logdatei vom 9. November 2008, 12:47

Die Toten Hosen / Learning English, Lesson One (Remastered)

Benutztes Laufwerk : HL-DT-STDVD-ROM GDR-H30N Adapter: 0 ID: 1

Lesemodus : Sicher
Benutze Accurate Stream : Ja
Audio Puffer abgeschaltet : Ja
Benutze C2 Fehlerinformationen : Nein

Leseoffset Korrektur : 6
Überlesen in das Lead-In und Lead-Out : Nein
Fülle fehlende Offsetsample mit Stille auf : Ja
Lösche führende und nachfolgende stille Blöcke : Nein
Null Samples gehen in CRC Berechnungen ein : Ja
Benutzte Schnittstelle : Installierte externe ASPI Schnittstelle

Benutztes Ausgabeformat : Interne WAV Routinen
Sampleformat : 44.100 Hz; 16 Bit; Stereo

TOC der ausgelesenen CD

Track | Start | Länge | Startsektor | Endsektor
——————————————————-
1 | 0:00.00 | 0:32.15 | 0 | 2414
2 | 0:32.15 | 1:50.08 | 2415 | 10672
3 | 2:22.23 | 3:34.18 | 10673 | 26740
4 | 5:56.41 | 0:11.35 | 26741 | 27600
5 | 6:08.01 | 2:29.68 | 27601 | 38843
6 | 8:37.69 | 3:08.27 | 38844 | 52970
7 | 11:46.21 | 2:06.50 | 52971 | 62470
8 | 13:52.71 | 0:17.32 | 62471 | 63777
9 | 14:10.28 | 2:15.43 | 63778 | 73945
10 | 16:25.71 | 3:12.72 | 73946 | 88417
11 | 19:38.68 | 2:15.08 | 88418 | 98550
12 | 21:54.01 | 3:21.40 | 98551 | 113665
13 | 25:15.41 | 0:18.43 | 113666 | 115058
14 | 25:34.09 | 3:26.54 | 115059 | 130562
15 | 29:00.63 | 3:07.13 | 130563 | 144600
16 | 32:08.01 | 0:17.73 | 144601 | 145948
17 | 32:25.74 | 3:04.52 | 145949 | 159800
18 | 35:30.51 | 3:18.54 | 159801 | 174704
19 | 38:49.30 | 2:56.68 | 174705 | 187972
20 | 41:46.23 | 2:11.35 | 187973 | 197832
21 | 43:57.58 | 0:22.68 | 197833 | 199550
22 | 44:20.51 | 2:30.59 | 199551 | 210859
23 | 46:51.35 | 4:28.05 | 210860 | 230964
24 | 51:19.40 | 1:00.44 | 230965 | 235508
25 | 52:20.09 | 3:01.44 | 235509 | 249127
26 | 55:21.53 | 2:43.07 | 249128 | 261359
27 | 58:04.60 | 1:59.45 | 261360 | 270329
28 | 60:04.30 | 4:24.47 | 270330 | 290176
29 | 64:29.02 | 2:39.52 | 290177 | 302153
30 | 67:08.54 | 4:11.68 | 302154 | 321046
31 | 71:20.47 | 3:58.72 | 321047 | 338968
32 | 75:19.44 | 1:56.72 | 338969 | 347740

Bereichsstatus und Fehler

Gewählter Bereich

Dateiname K:\Die Toten Hosen – Diskografie\Albums\2007 – Die DTH-Jubilaeumsedition (17 CD)\08 – Learning English\Die Toten Hosen – Learning English, Lesson One (Remastered).wav

Spitzenpegel 100.0 %
Bereichsqualität 100.0 %
Kopie CRC 357A065E
Kopie OK

Keine Fehler aufgetreten

AccurateRip Übersicht

Track 1 nicht in Datenbank enthalten
Track 2 nicht in Datenbank enthalten
Track 3 nicht in Datenbank enthalten
Track 4 nicht in Datenbank enthalten
Track 5 nicht in Datenbank enthalten
Track 6 nicht in Datenbank enthalten
Track 7 nicht in Datenbank enthalten
Track 8 nicht in Datenbank enthalten
Track 9 nicht in Datenbank enthalten
Track 10 nicht in Datenbank enthalten
Track 11 nicht in Datenbank enthalten
Track 12 nicht in Datenbank enthalten
Track 13 nicht in Datenbank enthalten
Track 14 nicht in Datenbank enthalten
Track 15 nicht in Datenbank enthalten
Track 16 nicht in Datenbank enthalten
Track 17 nicht in Datenbank enthalten
Track 18 nicht in Datenbank enthalten
Track 19 nicht in Datenbank enthalten
Track 20 nicht in Datenbank enthalten
Track 21 nicht in Datenbank enthalten
Track 22 nicht in Datenbank enthalten
Track 23 nicht in Datenbank enthalten
Track 24 nicht in Datenbank enthalten
Track 25 nicht in Datenbank enthalten
Track 26 nicht in Datenbank enthalten
Track 27 nicht in Datenbank enthalten
Track 28 nicht in Datenbank enthalten
Track 29 nicht in Datenbank enthalten
Track 30 nicht in Datenbank enthalten
Track 31 nicht in Datenbank enthalten
Track 32 nicht in Datenbank enthalten

Keiner der Tracks ist in der AccurateRip Datenbank vorhanden

Ende des Statusreports

AUDIOCHECKER v2.0 beta (build 457) – by Dester – opdester@freemail.hu
~~~~~~~~~~~~~~~~~~~~~~~~~~~~~~~~~~
-=== DO NOT EDIT THIS FILE! ===-

Path: …\CD 08 – Learning English Lesson One (1991)

001 -=- 01. Learning English, Step One.flac -=- CDDA (100%)
002 -=- 02. Blitzkrieg Bop.flac -=- CDDA (100%)
003 -=- 03. Brickfield Nights.flac -=- CDDA (100%)
004 -=- 04. Learning English, Step Two.flac -=- CDDA (100%)
005 -=- 05. Just Thirteen.flac -=- CDDA (100%)
006 -=- 06. If The Kids Are United.flac -=- CDDA (100%)
007 -=- 07. Nasty Nasty.flac -=- CDDA (100%)
008 -=- 08. Learning English, Step Three.flac -=- CDDA (100%)
009 -=- 09. Dirty Pictures.flac -=- CDDA (100%)
010 -=- 10. Baby Baby.flac -=- CDDA (100%)
011 -=- 11. Gary Gilmore’s Eyes.flac -=- CDDA (100%)
012 -=- 12. Born To Lose.flac -=- CDDA (100%)
013 -=- 13. How The Rockafellas Went To Hollywood.flac -=- CDDA (100%)
014 -=- 14. Do You Remember.flac -=- CDDA (99%)
015 -=- 15. Carnival In Rio (Punk Was).flac -=- CDDA (100%)
016 -=- 16. Learning English, Step Four.flac -=- CDDA (100%)
017 -=- 17. Right To Work.flac -=- CDDA (100%)
018 -=- 18. Whole Wide World.flac -=- CDDA (100%)
019 -=- 19. Smash It Up.flac -=- CDDA (100%)
020 -=- 20. Stranglehold.flac -=- CDDA (100%)
021 -=- 21. Learning English, Step Five.flac -=- CDDA (100%)
022 -=- 22. Love And A Molotov Cocktail.flac -=- CDDA (100%)
023 -=- 23. Do Anything You Wanna Do.flac -=- CDDA (99%)
024 -=- 24. Goodbye From Janet And John.flac -=- CDDA (100%)
025 -=- 25. No One Is Innocent (Carnival In Rio (Punk Was)-Single).flac -=- CDDA (99%)
026 -=- 26. Should I Stay Or Should I Go (Warum Werde Ich Nicht Satt-Single).flac -=- CDDA (100%)
027 -=- 27. Rockaway Beach (Alles Wird Vorübergehen-Single).flac -=- CDDA (100%)
028 -=- 28. Eddie And Sheena.flac -=- CDDA (100%)
029 -=- 29. Richmond (Learning English, Lesson One-Us Version).flac -=- CDDA (100%)
030 -=- 30. In The Still Of The Night (Demo).flac -=- CDDA (100%)
031 -=- 31. Anything But Love (Demo).flac -=- CDDA (100%)
032 -=- 32. I Met Her At The Jet Grill (Demo).flac -=- CDDA (100%)

Summary 99,91% CDDA

203544420


Leave a Reply

Your email address will not be published. Required fields are marked *

This site uses Akismet to reduce spam. Learn how your comment data is processed.