Die Toten Hosen – La Hermandad – En El Principio Fue El Ruido




Artist: Die Toten Hosen
Year: 2009
Genre: Rock
Notes: Discogs
Add. Notes:
Cover incl.: Yes
Encoder: FLAC
Bitrate: ~1100 kBit/s (44.1 kHz/16 Bit/s)
Log & Cue incl.: Yes
Size: 754,27 MB
Password: “slam” (without ” “)


All Downloads/Hosters are compatible

Download 1
Turbobit.net
KatFile.com
Rapidgator.net
NitroFlare.com
Download 2
Turbobit.net
KatFile.com
Rapidgator.net
NitroFlare.com

Tracklist:

1 - Strom - 2:50
2 - Weißes Rauschen - 2:06
3 - Innen Alles Neu - 2:56
4 - Disco - 3:22
5 - Vida Desesperada - 3:11
6 - Ich Bin Die Sehnsucht In Dir - 4:02
7 - Pessimist - 2:45
8 - Friss Oder Stirb - 3:43
9 - Viva La Muerte - 3:58
10 - Leben Ist Tödlich - 3:24
11 - Goodby Garageland - 2:22
12 - The Guns Of Brixton - 2:56
13 - Teil Von Mir - 2:58
14 - Alles Was War - 3:07
15 - Die Letzte Schlacht - 3:03
16 - Uno, Dos Ultraviolento - 2:56
17 - Freunde - 4:04
18 - Angst - 3:13

EAC-Log, CUE-Sheed & NFO:

Click to open spoiler
Exact Audio Copy V0.99 prebeta 4 from 23. January 2008

EAC Auslese-Logdatei vom 3. April 2009, 12:53

Die Toten Hosen / EN EL FINAL FUE EL SILENCIO

Benutztes Laufwerk : HL-DT-STDVD-ROM GDR-H30N Adapter: 0 ID: 1

Lesemodus : Sicher
Benutze Accurate Stream : Ja
Audio Puffer abgeschaltet : Ja
Benutze C2 Fehlerinformationen : Nein

Leseoffset Korrektur : 6
Überlesen in das Lead-In und Lead-Out : Nein
Fülle fehlende Offsetsample mit Stille auf : Ja
Lösche führende und nachfolgende stille Blöcke : Nein
Null Samples gehen in CRC Berechnungen ein : Ja
Benutzte Schnittstelle : Installierte externe ASPI Schnittstelle

Benutztes Ausgabeformat : Interne WAV Routinen
Sampleformat : 44.100 Hz; 16 Bit; Stereo

TOC der ausgelesenen CD

Track | Start | Länge | Startsektor | Endsektor
——————————————————-
1 | 0:00.00 | 2:50.09 | 0 | 12758
2 | 2:50.09 | 2:06.63 | 12759 | 22271
3 | 4:56.72 | 2:56.71 | 22272 | 35542
4 | 7:53.68 | 3:22.08 | 35543 | 50700
5 | 11:16.01 | 3:11.18 | 50701 | 65043
6 | 14:27.19 | 4:02.44 | 65044 | 83237
7 | 18:29.63 | 2:45.31 | 83238 | 95643
8 | 21:15.19 | 3:43.56 | 95644 | 112424
9 | 24:59.00 | 3:58.42 | 112425 | 130316
10 | 28:57.42 | 3:24.54 | 130317 | 145670
11 | 32:22.21 | 2:22.46 | 145671 | 156366
12 | 34:44.67 | 2:56.42 | 156367 | 169608
13 | 37:41.34 | 2:58.51 | 169609 | 183009
14 | 40:40.10 | 3:07.33 | 183010 | 197067
15 | 43:47.43 | 3:03.02 | 197068 | 210794
16 | 46:50.45 | 2:56.66 | 210795 | 224060
17 | 49:47.36 | 4:04.37 | 224061 | 242397
18 | 53:51.73 | 3:13.74 | 242398 | 256946

Bereichsstatus und Fehler

Gewählter Bereich

Dateiname K:\Die Toten Hosen – Diskografie\DTH – Diskographie\2009 – La Hermandad\Die Toten Hosen – EN EL FINAL FUE EL SILENCIO.wav

Spitzenpegel 98.9 %
Bereichsqualität 100.0 %
Kopie CRC 64060E74
Kopie OK

Keine Fehler aufgetreten

AccurateRip Übersicht

Track 1 nicht in Datenbank enthalten
Track 2 nicht in Datenbank enthalten
Track 3 nicht in Datenbank enthalten
Track 4 nicht in Datenbank enthalten
Track 5 nicht in Datenbank enthalten
Track 6 nicht in Datenbank enthalten
Track 7 nicht in Datenbank enthalten
Track 8 nicht in Datenbank enthalten
Track 9 nicht in Datenbank enthalten
Track 10 nicht in Datenbank enthalten
Track 11 nicht in Datenbank enthalten
Track 12 nicht in Datenbank enthalten
Track 13 nicht in Datenbank enthalten
Track 14 nicht in Datenbank enthalten
Track 15 nicht in Datenbank enthalten
Track 16 nicht in Datenbank enthalten
Track 17 nicht in Datenbank enthalten
Track 18 nicht in Datenbank enthalten

Keiner der Tracks ist in der AccurateRip Datenbank vorhanden

Ende des Statusreports

REM GENRE “Punk Rock”
REM DATE 2009
REM DISCID 0E0D6112
REM COMMENT “ExactAudioCopy v0.99pb4”
PERFORMER “Die Toten Hosen”
TITLE “EN EL FINAL FUE EL SILENCIO”
FILE “Die Toten Hosen – EN EL FINAL FUE EL SILENCIO.flac” WAVE
TRACK 01 AUDIO
TITLE “Strom”
PERFORMER “Die Toten Hosen”
INDEX 01 00:00:00
TRACK 02 AUDIO
TITLE “Weißes Rauschen (Remix)”
PERFORMER “Die Toten Hosen”
INDEX 01 02:50:09
TRACK 03 AUDIO
TITLE “Innen alles neu”
PERFORMER “Die Toten Hosen”
INDEX 01 04:56:72
TRACK 04 AUDIO
TITLE “Disco”
PERFORMER “Die Toten Hosen”
INDEX 01 07:53:68
TRACK 05 AUDIO
TITLE “Vida Desesperada (Bonus)”
PERFORMER “Die Toten Hosen”
INDEX 01 11:16:01
TRACK 06 AUDIO
TITLE “Ich bin die Sehnsucht in Dir (Remix)”
PERFORMER “Die Toten Hosen”
INDEX 01 14:27:19
TRACK 07 AUDIO
TITLE “Pessimist”
PERFORMER “Die Toten Hosen”
INDEX 01 18:29:63
TRACK 08 AUDIO
TITLE “Friss oder Stirb (Remix)”
PERFORMER “Die Toten Hosen”
INDEX 01 21:15:19
TRACK 09 AUDIO
TITLE “Viva La Muerte (Bonus)”
PERFORMER “Die Toten Hosen”
INDEX 01 24:59:00
TRACK 10 AUDIO
TITLE “Leben ist tödlich”
PERFORMER “Die Toten Hosen”
INDEX 01 28:57:42
TRACK 11 AUDIO
TITLE “Goodbye Garageland (Remix)”
PERFORMER “Die Toten Hosen”
INDEX 01 32:22:21
TRACK 12 AUDIO
TITLE “The Guns of Brixton (Remix)”
PERFORMER “Die Toten Hosen”
INDEX 01 34:44:67
TRACK 13 AUDIO
TITLE “Teil von mir”
PERFORMER “Die Toten Hosen”
INDEX 01 37:41:34
TRACK 14 AUDIO
TITLE “Alles was war”
PERFORMER “Die Toten Hosen”
INDEX 01 40:40:10
TRACK 15 AUDIO
TITLE “Die letzte Schlacht”
PERFORMER “Die Toten Hosen”
INDEX 01 43:47:43
TRACK 16 AUDIO
TITLE “Unos, Dos Ultraviolentos (Bonus)”
PERFORMER “Die Toten Hosen”
INDEX 01 46:50:45
TRACK 17 AUDIO
TITLE “Freunde (Remix)”
PERFORMER “Die Toten Hosen”
INDEX 01 49:47:36
TRACK 18 AUDIO
TITLE “Angst”
PERFORMER “Die Toten Hosen”
INDEX 01 53:51:73


Leave a Reply

Your email address will not be published. Required fields are marked *

This site uses Akismet to reduce spam. Learn how your comment data is processed.