Die Toten Hosen – Kauf Mich!




Artist: Die Toten Hosen
Year: 1993
Genre: Punk
Notes: Discogs
Add. Notes:
Cover incl.: Yes
Encoder: FLAC
Bitrate: ~800 kBit/s (44.1 kHz/16 Bit/s)
Log & Cue incl.: Yes
Size: 484,84 MB
Password: “slam” (without ” “)


All Downloads/Hosters are compatible

Download 1
Turbobit.net
KatFile.com
Rapidgator.net
Usersdrive.com
Download 2
Turbobit.net
KatFile.com
Rapidgator.net
Usersdrive.com

Tracklist:

1 - Umtausch Ausgeschlossen! - 2:14
2 - Niemals Einer Meinung - 3:45
3 - Hot-Clip-Video-Club - 4:02
4 - Willkommen In Deutschland - 3:54
5 - Drunter, Drauf & Drüber - 3:00
6 - Erotim-Super-3-Feucht - 0:31
7 - Kauf MICH! - 3:29
8 - Die Homolka Kettensäge - 0:36
9 - Sascha ... Ein Aufrechter Deutscher - 2:35
10 - Gewissen - 2:34
11 - Gute Reise - 5:06
12 - Alles Aus Liebe - 4:32
13 - Wünsch Dir Was - 4:16
14 - Mein Größter Feind - 3:06
15 - Rambo-Dance - 4:07
16.1 - Katastrophen-Kommando - 17:57
16.2 - Ein Schöner Tag - 3:28

EAC-Log, CUE-Sheed & NFO:

Click to open spoiler
Exact Audio Copy V0.99 prebeta 4 from 23. January 2008

EAC Auslese-Logdatei vom 15. März 2009, 13:17

Die Toten Hosen / Kauf Mich!

Benutztes Laufwerk : HL-DT-STDVD-ROM GDR-H30N Adapter: 0 ID: 1

Lesemodus : Sicher
Benutze Accurate Stream : Ja
Audio Puffer abgeschaltet : Ja
Benutze C2 Fehlerinformationen : Nein

Leseoffset Korrektur : 6
Überlesen in das Lead-In und Lead-Out : Nein
Fülle fehlende Offsetsample mit Stille auf : Ja
Lösche führende und nachfolgende stille Blöcke : Nein
Null Samples gehen in CRC Berechnungen ein : Ja
Benutzte Schnittstelle : Installierte externe ASPI Schnittstelle

Benutztes Ausgabeformat : Interne WAV Routinen
Sampleformat : 44.100 Hz; 16 Bit; Stereo

TOC der ausgelesenen CD

Track | Start | Länge | Startsektor | Endsektor
——————————————————-
1 | 0:00.00 | 2:13.60 | 0 | 10034
2 | 2:13.60 | 3:45.02 | 10035 | 26911
3 | 5:58.62 | 4:01.53 | 26912 | 45039
4 | 10:00.40 | 3:54.37 | 45040 | 62626
5 | 13:55.02 | 2:59.50 | 62627 | 76101
6 | 16:54.52 | 0:31.30 | 76102 | 78456
7 | 17:26.07 | 3:29.10 | 78457 | 94141
8 | 20:55.17 | 0:35.38 | 94142 | 96804
9 | 21:30.55 | 2:35.05 | 96805 | 108434
10 | 24:05.60 | 2:34.00 | 108435 | 119984
11 | 26:39.60 | 5:06.17 | 119985 | 142951
12 | 31:46.02 | 4:32.30 | 142952 | 163381
13 | 36:18.32 | 4:15.58 | 163382 | 182564
14 | 40:34.15 | 3:06.15 | 182565 | 196529
15 | 43:40.30 | 4:07.00 | 196530 | 215054
16 | 47:47.30 | 17:57.20 | 215055 | 295849

Bereichsstatus und Fehler

Gewählter Bereich

Dateiname K:\Die Toten Hosen – Diskografie\Albums\1993 – Kauf MICH!\Die Toten Hosen – Kauf Mich!.wav

Spitzenpegel 97.8 %
Bereichsqualität 100.0 %
Kopie CRC 97C5DA3A
Kopie OK

Keine Fehler aufgetreten

AccurateRip Übersicht

Track 1 akkurat gelesen (Zuversicht 2) [84609573]
Track 2 akkurat gelesen (Zuversicht 2) [A4311946]
Track 3 akkurat gelesen (Zuversicht 2) [04FA8B44]
Track 4 akkurat gelesen (Zuversicht 2) [8DD77ABB]
Track 5 akkurat gelesen (Zuversicht 2) [04720261]
Track 6 akkurat gelesen (Zuversicht 2) [D25A4827]
Track 7 akkurat gelesen (Zuversicht 2) [7F8784AB]
Track 8 akkurat gelesen (Zuversicht 2) [BCC183AC]
Track 9 akkurat gelesen (Zuversicht 2) [4140638E]
Track 10 akkurat gelesen (Zuversicht 2) [DBC8337F]
Track 11 akkurat gelesen (Zuversicht 2) [535C74E8]
Track 12 akkurat gelesen (Zuversicht 3) [DC099CE7]
Track 13 akkurat gelesen (Zuversicht 3) [8FABE349]
Track 14 akkurat gelesen (Zuversicht 3) [F6634985]
Track 15 akkurat gelesen (Zuversicht 2) [E64FC75B]
Track 16 akkurat gelesen (Zuversicht 2) [496D4C28]

Alle Tracks wurden akkurat gelesen

Ende des Statusreports

REM GENRE Deutschpunk
REM DATE 1993
REM DISCID C90F6810
REM COMMENT “ExactAudioCopy v0.99pb4”
PERFORMER “Die Toten Hosen”
TITLE “Kauf Mich!”
FILE “Die Toten Hosen – Kauf Mich!.flac” WAVE
TRACK 01 AUDIO
TITLE “Umtausch ausgeschlossen!”
PERFORMER “Die Toten Hosen”
INDEX 01 00:00:00
TRACK 02 AUDIO
TITLE “Niemals einer Meinung”
PERFORMER “Die Toten Hosen”
INDEX 00 02:13:57
INDEX 01 02:13:60
TRACK 03 AUDIO
TITLE “Hot-Clip-Video-Club”
PERFORMER “Die Toten Hosen”
INDEX 00 05:58:60
INDEX 01 05:58:62
TRACK 04 AUDIO
TITLE “Willkommen in Deutschland”
PERFORMER “Die Toten Hosen”
INDEX 00 10:00:37
INDEX 01 10:00:40
TRACK 05 AUDIO
TITLE “Drunter, drauf & drüber”
PERFORMER “Die Toten Hosen”
INDEX 00 13:55:00
INDEX 01 13:55:02
TRACK 06 AUDIO
TITLE “Erotim-Super-3-Feucht”
PERFORMER “Die Toten Hosen”
INDEX 00 16:54:50
INDEX 01 16:54:52
TRACK 07 AUDIO
TITLE “Kauf MICH!”
PERFORMER “Die Toten Hosen”
INDEX 00 17:26:05
INDEX 01 17:26:07
TRACK 08 AUDIO
TITLE “Die Homolka Kettensäge”
PERFORMER “Die Toten Hosen”
INDEX 00 20:55:15
INDEX 01 20:55:17
TRACK 09 AUDIO
TITLE “Sascha … ein aufrechter Deutscher”
PERFORMER “Die Toten Hosen”
INDEX 00 21:30:52
INDEX 01 21:30:55
TRACK 10 AUDIO
TITLE “Gewissen”
PERFORMER “Die Toten Hosen”
INDEX 00 24:05:57
INDEX 01 24:05:60
TRACK 11 AUDIO
TITLE “Gute Reise”
PERFORMER “Die Toten Hosen”
INDEX 00 26:39:57
INDEX 01 26:39:60
TRACK 12 AUDIO
TITLE “Alles aus Liebe”
PERFORMER “Die Toten Hosen”
INDEX 00 31:46:00
INDEX 01 31:46:02
TRACK 13 AUDIO
TITLE “Wünsch Dir was”
PERFORMER “Die Toten Hosen”
INDEX 00 36:18:30
INDEX 01 36:18:32
TRACK 14 AUDIO
TITLE “Mein größter Feind”
PERFORMER “Die Toten Hosen”
INDEX 00 40:34:12
INDEX 01 40:34:15
TRACK 15 AUDIO
TITLE “Rambo-Dance”
PERFORMER “Die Toten Hosen”
INDEX 00 43:40:27
INDEX 01 43:40:30
TRACK 16 AUDIO
TITLE “Katastrophen-Kommando”
PERFORMER “Die Toten Hosen”
INDEX 00 47:47:27
INDEX 01 47:47:30


Leave a Reply

Your email address will not be published. Required fields are marked *

Enter the text from the image below
 

This site uses Akismet to reduce spam. Learn how your comment data is processed.