Die Toten Hosen – Kauf Mich! (Remastered)




Artist: Die Toten Hosen
Year: 1993/2007
Genre: Rock
Notes: Discogs
Add. Notes: Remastered
Cover incl.: Yes
Encoder: FLAC
Bitrate: ~1000 kBit/s (44.1 kHz/16 Bit/s)
Log & Cue incl.: Yes
Size: 1131,9 MB
Password: “slam” (without ” “)


All Downloads/Hosters are compatible

Download 1
KatFile.com
Turbobit.net
Rapidgator.net
Turbobit.net
Download 2
KatFile.com
Turbobit.net
Rapidgator.net
Turbobit.net

Tracklist:

1 - Umtausch Ausgeschlossen! - 2:13
2 - Niemals Einer Meinung - 3:45
3 - Hot-Clip-Video-Club - 4:02
4 - Willkommen In Deutschland - 3:55
5 - Drunter, Drauf & Drüber - 3:00
6 - Erotim-Super-3-Feucht - 0:31
7 - Kauf Mich! - 3:29
8 - Die Homolka Kettensäge - 0:35
9 - Sascha ... Ein Aufrechter Deutscher - 2:35
10 - Gewissen - 2:34
11 - Gute Reise - 5:06
12 - Alles Aus Liebe - 4:32
13 - Wünsch Dir Was - 4:16
14 - Mein Größter Feind - 3:07
15 - Rambo-Dance - 4:07
16 - Katastrophen-Kommando - 4:29
17 - Der Letzte Tag - 3:29
 Extra-Plus:
18 - Krieg Und Frieden - 4:58
19 - Im Namen Des Herrn - 2:09
20 - Auf Dem Weg Zur Nummer 1 - 4:01
21 - 5 Minuten - 3:01
22 - Hilfe - 3:24
23 - Der Heiße Draht (Best Of) - 6:10

EAC-Log, CUE-Sheed & NFO:

Click to open spoiler
Exact Audio Copy V0.99 prebeta 3 from 28. July 2007

EAC Auslese-Logdatei vom 9. November 2008, 13:04

Die Toten Hosen / Kauf MICH! (Remastered)

Benutztes Laufwerk : HL-DT-STDVD-ROM GDR-H30N Adapter: 0 ID: 1

Lesemodus : Sicher
Benutze Accurate Stream : Ja
Audio Puffer abgeschaltet : Ja
Benutze C2 Fehlerinformationen : Nein

Leseoffset Korrektur : 6
Überlesen in das Lead-In und Lead-Out : Nein
Fülle fehlende Offsetsample mit Stille auf : Ja
Lösche führende und nachfolgende stille Blöcke : Nein
Null Samples gehen in CRC Berechnungen ein : Ja
Benutzte Schnittstelle : Installierte externe ASPI Schnittstelle

Benutztes Ausgabeformat : Interne WAV Routinen
Sampleformat : 44.100 Hz; 16 Bit; Stereo

TOC der ausgelesenen CD

Track | Start | Länge | Startsektor | Endsektor
——————————————————-
1 | 0:00.00 | 2:13.35 | 0 | 10009
2 | 2:13.35 | 3:45.06 | 10010 | 26890
3 | 5:58.41 | 4:01.51 | 26891 | 45016
4 | 10:00.17 | 3:54.46 | 45017 | 62612
5 | 13:54.63 | 2:59.45 | 62613 | 76082
6 | 16:54.33 | 0:31.36 | 76083 | 78443
7 | 17:25.69 | 3:29.08 | 78444 | 94126
8 | 20:55.02 | 0:35.35 | 94127 | 96786
9 | 21:30.37 | 2:34.70 | 96787 | 108406
10 | 24:05.32 | 2:34.03 | 108407 | 119959
11 | 26:39.35 | 5:06.11 | 119960 | 142920
12 | 31:45.46 | 4:32.33 | 142921 | 163353
13 | 36:18.04 | 4:15.48 | 163354 | 182526
14 | 40:33.52 | 3:06.46 | 182527 | 196522
15 | 43:40.23 | 4:06.62 | 196523 | 215034
16 | 47:47.10 | 4:28.46 | 215035 | 235180
17 | 52:15.56 | 3:28.45 | 235181 | 250825
18 | 55:44.26 | 4:58.36 | 250826 | 273211
19 | 60:42.62 | 2:08.48 | 273212 | 282859
20 | 62:51.35 | 4:01.32 | 282860 | 300966
21 | 66:52.67 | 3:01.24 | 300967 | 314565
22 | 69:54.16 | 3:24.30 | 314566 | 329895
23 | 73:18.46 | 6:09.41 | 329896 | 357611

Bereichsstatus und Fehler

Gewählter Bereich

Dateiname K:\Die Toten Hosen – Diskografie\Albums\2007 – Die DTH-Jubilaeumsedition (17 CD)\09 – Kauf mich\Die Toten Hosen – Kauf MICH! (Remastered).wav

Spitzenpegel 100.0 %
Bereichsqualität 100.0 %
Kopie CRC 4715D661
Kopie OK

Keine Fehler aufgetreten

AccurateRip Übersicht

Track 1 nicht in Datenbank enthalten
Track 2 nicht in Datenbank enthalten
Track 3 nicht in Datenbank enthalten
Track 4 nicht in Datenbank enthalten
Track 5 nicht in Datenbank enthalten
Track 6 nicht in Datenbank enthalten
Track 7 nicht in Datenbank enthalten
Track 8 nicht in Datenbank enthalten
Track 9 nicht in Datenbank enthalten
Track 10 nicht in Datenbank enthalten
Track 11 nicht in Datenbank enthalten
Track 12 nicht in Datenbank enthalten
Track 13 nicht in Datenbank enthalten
Track 14 nicht in Datenbank enthalten
Track 15 nicht in Datenbank enthalten
Track 16 nicht in Datenbank enthalten
Track 17 nicht in Datenbank enthalten
Track 18 nicht in Datenbank enthalten
Track 19 nicht in Datenbank enthalten
Track 20 nicht in Datenbank enthalten
Track 21 nicht in Datenbank enthalten
Track 22 nicht in Datenbank enthalten
Track 23 nicht in Datenbank enthalten

Keiner der Tracks ist in der AccurateRip Datenbank vorhanden

Ende des Statusreports

AUDIOCHECKER v2.0 beta (build 457) – by Dester – opdester@freemail.hu
~~~~~~~~~~~~~~~~~~~~~~~~~~~~~~~~~~
-=== DO NOT EDIT THIS FILE! ===-

Path: …\CD 09 – Kauf Mich! (1993)

001 -=- 01. Umtausch Ausgeschlossen!.flac -=- CDDA (100%)
002 -=- 02. Niemals Einer Meinung.flac -=- CDDA (99%)
003 -=- 03. Hot-Clip-Video-Club.flac -=- CDDA (100%)
004 -=- 04. Willkommen In Deutschland.flac -=- CDDA (100%)
005 -=- 05. Drunter, Drauf & Drüber.flac -=- CDDA (100%)
006 -=- 06. Erotim-Super-3-Feucht.flac -=- CDDA (100%)
007 -=- 07. Kauf Mich!.flac -=- CDDA (99%)
008 -=- 08. Die Homolka Kettensäge.flac -=- CDDA (100%)
009 -=- 09. Sascha … Ein Aufrechter Deutscher.flac -=- CDDA (100%)
010 -=- 10. Gewissen.flac -=- CDDA (100%)
011 -=- 11. Gute Reise.flac -=- CDDA (100%)
012 -=- 12. Alles Aus Liebe.flac -=- CDDA (100%)
013 -=- 13. Wünsch Dir Was.flac -=- CDDA (100%)
014 -=- 14. Mein Größter Feind.flac -=- CDDA (100%)
015 -=- 15. Rambo-Dance.flac -=- CDDA (100%)
016 -=- 16. Katastrophen-Kommando.flac -=- CDDA (100%)
017 -=- 17. Der Letzte Tag.flac -=- CDDA (100%)
018 -=- 18. Krieg Und Frieden (Wünsch Dir Was-Single).flac -=- CDDA (100%)
019 -=- 19. Im Namen Des Herrn (Wünsch Dir Was-Single).flac -=- CDDA (100%)
020 -=- 20. Auf Dem Weg Zur Nummer 1 (Alles Aus Liebe-Single).flac -=- CDDA (100%)
021 -=- 21. 5 Minuten (Alles Aus Liebe-Single).flac -=- CDDA (100%)
022 -=- 22. Hilfe (Kauf Mich!-Single).flac -=- CDDA (100%)
023 -=- 23. Der Heiße Draht (Best Of) (Kauf Mich!-Single)).flac -=- MPEG (100%)
024 -=- 24. Kauf Mich! (Remastered).flac -=- CDDA (100%)

Summary 95,75% CDDA

82576148


Leave a Reply

Your email address will not be published. Required fields are marked *

This site uses Akismet to reduce spam. Learn how your comment data is processed.