Die Toten Hosen – In Aller Stille




Artist: Die Toten Hosen
Year: 2008
Genre: Rock
Notes: Discogs
Add. Notes:
Cover incl.: Yes
Encoder: FLAC
Bitrate: ~1000 kBit/s (44.1 kHz/16 Bit/s)
Log & Cue incl.: Yes
Size: 760,25 MB
Password: “slam” (without ” “)


All Downloads/Hosters are compatible

Download 1
Turbobit.net
NitroFlare.com
KatFile.com
Rapidgator.net
Download 2
Turbobit.net
NitroFlare.com
KatFile.com
Rapidgator.net

Tracklist:

1 - Strom - 2:48
2 - Innen Alles Neu - 2:57
3 - Disco - 3:22
4 - Teil Von Mir - 3:00
5 - Auflösen - 3:19
6 - Leben Ist Tödlich - 3:26
7 - Ertrinken - 4:13
8 - Alles Was War - 3:05
9 - Pessimist - 2:47
10 - Wir Bleiben Stumm - 3:33
11 - Die Letzte Schlacht - 3:03
12 - Tauschen Gegen Dich - 3:16
13 - Angst - 3:11

EAC-Log, CUE-Sheed & NFO:

Click to open spoiler
Exact Audio Copy V0.99 prebeta 3 from 28. July 2007

EAC Auslese-Logdatei vom 15. November 2008, 0:40

Die Toten Hosen / In Aller Stille

Benutztes Laufwerk : HL-DT-STDVD-ROM GDR-H30N Adapter: 0 ID: 1

Lesemodus : Sicher
Benutze Accurate Stream : Ja
Audio Puffer abgeschaltet : Ja
Benutze C2 Fehlerinformationen : Nein

Leseoffset Korrektur : 6
Überlesen in das Lead-In und Lead-Out : Nein
Fülle fehlende Offsetsample mit Stille auf : Ja
Lösche führende und nachfolgende stille Blöcke : Nein
Null Samples gehen in CRC Berechnungen ein : Ja
Benutzte Schnittstelle : Installierte externe ASPI Schnittstelle

Benutztes Ausgabeformat : Interne WAV Routinen
Sampleformat : 44.100 Hz; 16 Bit; Stereo

TOC der ausgelesenen CD

Track | Start | Länge | Startsektor | Endsektor
——————————————————-
1 | 0:00.00 | 2:48.61 | 0 | 12660
2 | 2:48.61 | 2:57.17 | 12661 | 25952
3 | 5:46.03 | 3:22.10 | 25953 | 41112
4 | 9:08.13 | 3:00.23 | 41113 | 54635
5 | 12:08.36 | 3:19.41 | 54636 | 69601
6 | 15:28.02 | 3:26.71 | 69602 | 85122
7 | 18:54.73 | 4:13.14 | 85123 | 104111
8 | 23:08.12 | 3:05.45 | 104112 | 118031
9 | 26:13.57 | 2:47.07 | 118032 | 130563
10 | 29:00.64 | 3:33.70 | 130564 | 146608
11 | 32:34.59 | 3:03.64 | 146609 | 160397
12 | 35:38.48 | 3:16.26 | 160398 | 175123
13 | 38:54.74 | 3:11.52 | 175124 | 189500

Bereichsstatus und Fehler

Gewählter Bereich

Dateiname K:\Die Toten Hosen – Diskografie\Albums\2008 – In aller Stille\Die Toten Hosen – In Aller Stille.wav

Spitzenpegel 100.0 %
Bereichsqualität 99.9 %
Kopie CRC 5FAA8084
Kopie OK

Keine Fehler aufgetreten

AccurateRip Übersicht

Track 1 nicht in Datenbank enthalten
Track 2 nicht in Datenbank enthalten
Track 3 nicht in Datenbank enthalten
Track 4 nicht in Datenbank enthalten
Track 5 nicht in Datenbank enthalten
Track 6 nicht in Datenbank enthalten
Track 7 nicht in Datenbank enthalten
Track 8 nicht in Datenbank enthalten
Track 9 nicht in Datenbank enthalten
Track 10 nicht in Datenbank enthalten
Track 11 nicht in Datenbank enthalten
Track 12 nicht in Datenbank enthalten
Track 13 nicht in Datenbank enthalten

Keiner der Tracks ist in der AccurateRip Datenbank vorhanden

Ende des Statusreports

REM GENRE Rock
REM DATE 2008
REM DISCID 9B09DE0D
REM COMMENT “ExactAudioCopy v0.99pb3”
PERFORMER “Die Toten Hosen”
TITLE “In Aller Stille”
FILE “Die Toten Hosen – In Aller Stille.wav” WAVE
TRACK 01 AUDIO
TITLE “Strom”
PERFORMER “Die Toten Hosen”
INDEX 01 00:00:00
TRACK 02 AUDIO
TITLE “Innen alles neu”
PERFORMER “Die Toten Hosen”
INDEX 01 02:48:61
TRACK 03 AUDIO
TITLE “Disco”
PERFORMER “Die Toten Hosen”
INDEX 01 05:46:03
TRACK 04 AUDIO
TITLE “Teil von mir”
PERFORMER “Die Toten Hosen”
INDEX 01 09:08:13
TRACK 05 AUDIO
TITLE “Auflösen”
PERFORMER “Die Toten Hosen”
INDEX 01 12:08:36
TRACK 06 AUDIO
TITLE “Leben ist tödlich”
PERFORMER “Die Toten Hosen”
INDEX 01 15:28:02
TRACK 07 AUDIO
TITLE “Ertrinken”
PERFORMER “Die Toten Hosen”
INDEX 01 18:54:73
TRACK 08 AUDIO
TITLE “Alles was war”
PERFORMER “Die Toten Hosen”
INDEX 01 23:08:12
TRACK 09 AUDIO
TITLE “Pessimist”
PERFORMER “Die Toten Hosen”
INDEX 01 26:13:57
TRACK 10 AUDIO
TITLE “Wir bleiben stumm”
PERFORMER “Die Toten Hosen”
INDEX 01 29:00:64
TRACK 11 AUDIO
TITLE “Die letzte Schlacht”
PERFORMER “Die Toten Hosen”
INDEX 01 32:34:59
TRACK 12 AUDIO
TITLE “Tauschen gegen dich”
PERFORMER “Die Toten Hosen”
INDEX 01 35:38:48
TRACK 13 AUDIO
TITLE “Angst”
PERFORMER “Die Toten Hosen”
INDEX 01 38:54:74


Leave a Reply

Your email address will not be published. Required fields are marked *

This site uses Akismet to reduce spam. Learn how your comment data is processed.