Die Toten Hosen – Im Auftrag des Herrn, Live (Remastered)




No Cover available

Artist: Die Toten Hosen
Year: 1996/2007
Genre: Punk
Notes: Discogs
Add. Notes: Remastered
Watch Songs on: YouTube
Cover incl.: Yes
Encoder: FLAC
Bitrate: ~1100 kBit/s (44.1 kHz/16 Bit/s)
Log & Cue incl.: Yes
Size: 648,6 MB
Password: “slam” (without ” “)


All Downloads/Hosters are compatible

Download 1
KatFile.com
Turbobit.net
FileFactory.com
Rapidgator.net
Download 2
KatFile.com
Turbobit.net
FileFactory.com
Rapidgator.net

Tracklist:

1  Die Zehn Gebote  
2  Niemals Einer Meinung  
3  Alles Aus Liebe  
4  Einmal In Vier Jahren  
5  Nichts Bleibt Für Die Ewigkeit  
6  Musterbeispiel  
7  Bonnie & Clyde  
8  Gewissen  
9  Wünsch Dir Was  
10  Paradies  
11  The Passenger  
12  Hier Kommt Alex  
13  Sheena Is A Punkrocker  
14  Guantanamera  
15  Zehn Kleine Jägermeister  
16  Mehr Davon  
17  Böser Wolf  
18  All Die Ganzen Jahre  
19  Testbild  
20  You'll Never Walk Alone  
21  Schönen Gruss, Auf Wiederseh'n  
Zugabe
22  Seelentherapie ("Alles Aus Liebe 
(Live)", Single, 
1997)

EAC-Log, CUE-Sheed & NFO:

Click to open spoiler
Exact Audio Copy V0.99 prebeta 3 from 28. July 2007

EAC Auslese-Logdatei vom 10. November 2008, 5:19

Die Toten Hosen / Im Auftrag des Herrn (Remastered)

Benutztes Laufwerk : HL-DT-STDVD-ROM GDR-H30N Adapter: 0 ID: 1

Lesemodus : Sicher
Benutze Accurate Stream : Ja
Audio Puffer abgeschaltet : Ja
Benutze C2 Fehlerinformationen : Nein

Leseoffset Korrektur : 6
Überlesen in das Lead-In und Lead-Out : Nein
Fülle fehlende Offsetsample mit Stille auf : Ja
Lösche führende und nachfolgende stille Blöcke : Nein
Null Samples gehen in CRC Berechnungen ein : Ja
Benutzte Schnittstelle : Installierte externe ASPI Schnittstelle

Benutztes Ausgabeformat : Interne WAV Routinen
Sampleformat : 44.100 Hz; 16 Bit; Stereo

TOC der ausgelesenen CD

Track | Start | Länge | Startsektor | Endsektor
——————————————————-
1 | 0:00.00 | 3:59.32 | 0 | 17956
2 | 3:59.32 | 3:42.69 | 17957 | 34675
3 | 7:42.26 | 4:05.66 | 34676 | 53116
4 | 11:48.17 | 2:41.51 | 53117 | 65242
5 | 14:29.68 | 3:34.08 | 65243 | 81300
6 | 18:04.01 | 2:31.42 | 81301 | 92667
7 | 20:35.43 | 3:17.26 | 92668 | 107468
8 | 23:52.69 | 2:36.69 | 107469 | 119237
9 | 26:29.63 | 4:10.04 | 119238 | 137991
10 | 30:39.67 | 3:56.56 | 137992 | 155747
11 | 34:36.48 | 3:57.64 | 155748 | 173586
12 | 38:34.37 | 3:56.10 | 173587 | 191296
13 | 42:30.47 | 2:41.33 | 191297 | 203404
14 | 45:12.05 | 3:20.72 | 203405 | 218476
15 | 48:33.02 | 3:31.62 | 218477 | 234363
16 | 52:04.64 | 6:46.51 | 234364 | 264864
17 | 58:51.40 | 3:14.70 | 264865 | 279484
18 | 62:06.35 | 3:27.17 | 279485 | 295026
19 | 65:33.52 | 3:16.03 | 295027 | 309729
20 | 68:49.55 | 1:12.65 | 309730 | 315194
21 | 70:02.45 | 5:10.22 | 315195 | 338466
22 | 75:12.67 | 4:43.34 | 338467 | 359725

Bereichsstatus und Fehler

Gewählter Bereich

Dateiname K:\Die Toten Hosen – Diskografie\Albums\2007 – Die DTH-Jubilaeumsedition (17 CD)\13 – Im Auftrag des Herrn\Die Toten Hosen – Im Auftrag des Herrn (Remastered).wav

Spitzenpegel 100.0 %
Bereichsqualität 99.9 %
Kopie CRC 05B6438D
Kopie OK

Keine Fehler aufgetreten

AccurateRip Übersicht

Track 1 nicht in Datenbank enthalten
Track 2 nicht in Datenbank enthalten
Track 3 nicht in Datenbank enthalten
Track 4 nicht in Datenbank enthalten
Track 5 nicht in Datenbank enthalten
Track 6 nicht in Datenbank enthalten
Track 7 nicht in Datenbank enthalten
Track 8 nicht in Datenbank enthalten
Track 9 nicht in Datenbank enthalten
Track 10 nicht in Datenbank enthalten
Track 11 nicht in Datenbank enthalten
Track 12 nicht in Datenbank enthalten
Track 13 nicht in Datenbank enthalten
Track 14 nicht in Datenbank enthalten
Track 15 nicht in Datenbank enthalten
Track 16 nicht in Datenbank enthalten
Track 17 nicht in Datenbank enthalten
Track 18 nicht in Datenbank enthalten
Track 19 nicht in Datenbank enthalten
Track 20 nicht in Datenbank enthalten
Track 21 nicht in Datenbank enthalten
Track 22 nicht in Datenbank enthalten

Keiner der Tracks ist in der AccurateRip Datenbank vorhanden

Ende des Statusreports

AUDIOCHECKER v2.0 beta (build 457) – by Dester – opdester@freemail.hu
~~~~~~~~~~~~~~~~~~~~~~~~~~~~~~~~~~
-=== DO NOT EDIT THIS FILE! ===-

Path: …\CD 13 – Im Auftrag Des Herrn (1996)

001 -=- 01. Die Zehn Gebote.flac -=- CDDA (100%)
002 -=- 02. Niemals Einer Meinung.flac -=- CDDA (100%)
003 -=- 03. Alles Aus Liebe.flac -=- CDDA (100%)
004 -=- 04. Einmal In Vier Jahren.flac -=- CDDA (99%)
005 -=- 05. Nichts Bleibt Für Die Ewigkeit.flac -=- CDDA (100%)
006 -=- 06. Musterbeispiel.flac -=- CDDA (100%)
007 -=- 07. Bonnie & Clyde.flac -=- CDDA (100%)
008 -=- 08. Gewissen.flac -=- CDDA (100%)
009 -=- 09. Wünsch Dir Was.flac -=- CDDA (100%)
010 -=- 10. Paradies.flac -=- CDDA (100%)
011 -=- 11. The Passenger.flac -=- CDDA (100%)
012 -=- 12. Hier Kommt Alex.flac -=- CDDA (99%)
013 -=- 13. Sheena Is A Punkrocker.flac -=- CDDA (99%)
014 -=- 14. Guantanamera.flac -=- CDDA (100%)
015 -=- 15. Zehn Kleine Jägermeister.flac -=- CDDA (100%)
016 -=- 16. Mehr Davon.flac -=- CDDA (100%)
017 -=- 17. Böser Wolf.flac -=- CDDA (100%)
018 -=- 18. All Die Ganzen Jahre.flac -=- CDDA (100%)
019 -=- 19. Testbild.flac -=- CDDA (100%)
020 -=- 20. You’ll Never Walk Alone.flac -=- CDDA (100%)
021 -=- 21. Schönen Gruß, Auf Wiederseh’n.flac -=- CDDA (100%)
022 -=- 22. Seelentherapie (Alles Aus Liebe (Live)-Single).flac -=- CDDA (100%)

Summary 99,86% CDDA

140531540


Leave a Reply

Your email address will not be published. Required fields are marked *

This site uses Akismet to reduce spam. Learn how your comment data is processed.