Die Toten Hosen – Ein kleines bisschen Horrorshau (Remastered)




Artist: Die Toten Hosen
Year: 1988/2007
Genre: Punk
Notes: Discogs
Add. Notes: Remastered
Cover incl.: Yes
Encoder: FLAC
Bitrate: ~1000 kBit/s (44.1 kHz/16 Bit/s)
Log & Cue incl.: Yes
Size: 568 MB
Password: “slam” (without ” “)


All Downloads/Hosters are compatible

Download 1
KatFile.com
Turbobit.net
Rapidgator.net
Turbobit.net
Download 2
KatFile.com
Turbobit.net
Rapidgator.net
Turbobit.net

Tracklist:

1 - Hier Kommt Alex - 5:00
2 - 1000 Gute Gründe - 3:17
3 - Ein Schritt Zuviel - 2:33
4 - Keine Ahnung - 2:20
5 - Die Farbe Grau - 3:44
6 - 180 Grad - 4:37
7 - Mehr Davon - 5:22
8 - Zahltag - 2:32
9 - 35 Jahre - 2:28
10 - Musterbeispiel - 3:55
11 - Testbild - 3:29
12 - Bye, Bye Alex - 3:02
Mehr Schmutzige Bonus-Lieder
13 - Zum Chef (Später Dank) - 2:10
14 - Jo Singt (Das Wort Zum 
Sonntag) - 0:46
15 - Liebeslied - 3:50
16 - Die Farbe Grau - 3:51
17 - Zahltag - 2:43
18 - Musterbeispiel - 3:51
19 - 1200 Grad - 4:35
20 - Einmal In Vier Jahren - 4:49
21 - Schwarze Sheriffs - 3:39
22 - Zigarettenautomat - 2:04

EAC-Log, CUE-Sheed & NFO:

Click to open spoiler
Exact Audio Copy V0.99 prebeta 3 from 28. July 2007

EAC Auslese-Logdatei vom 9. November 2008, 1:14

Die Toten Hosen / Ein Kleines Bisschen Horroschau

Benutztes Laufwerk : HL-DT-STDVD-ROM GDR-H30N Adapter: 0 ID: 1

Lesemodus : Sicher
Benutze Accurate Stream : Ja
Audio Puffer abgeschaltet : Ja
Benutze C2 Fehlerinformationen : Nein

Leseoffset Korrektur : 6
Überlesen in das Lead-In und Lead-Out : Nein
Fülle fehlende Offsetsample mit Stille auf : Ja
Lösche führende und nachfolgende stille Blöcke : Nein
Null Samples gehen in CRC Berechnungen ein : Ja
Benutzte Schnittstelle : Installierte externe ASPI Schnittstelle

Benutztes Ausgabeformat : Interne WAV Routinen
Sampleformat : 44.100 Hz; 16 Bit; Stereo

TOC der ausgelesenen CD

Track | Start | Länge | Startsektor | Endsektor
——————————————————-
1 | 0:00.00 | 5:00.27 | 0 | 22526
2 | 5:00.27 | 3:17.64 | 22527 | 37365
3 | 8:18.16 | 2:33.25 | 37366 | 48865
4 | 10:51.41 | 2:20.57 | 48866 | 59422
5 | 13:12.23 | 3:44.02 | 59423 | 76224
6 | 16:56.25 | 4:37.23 | 76225 | 97022
7 | 21:33.48 | 5:22.54 | 97023 | 121226
8 | 26:56.27 | 2:32.62 | 121227 | 132688
9 | 29:29.14 | 2:28.17 | 132689 | 143805
10 | 31:57.31 | 3:55.61 | 143806 | 161491
11 | 35:53.17 | 3:29.66 | 161492 | 177232
12 | 39:23.08 | 3:02.23 | 177233 | 190905
13 | 42:25.31 | 2:10.69 | 190906 | 200724
14 | 44:36.25 | 0:46.20 | 200725 | 204194
15 | 45:22.45 | 3:50.50 | 204195 | 221494
16 | 49:13.20 | 3:51.45 | 221495 | 238864
17 | 53:04.65 | 2:43.18 | 238865 | 251107
18 | 55:48.08 | 3:51.64 | 251108 | 268496
19 | 59:39.72 | 4:35.34 | 268497 | 289155
20 | 64:15.31 | 4:49.15 | 289156 | 310845
21 | 69:04.46 | 3:39.33 | 310846 | 327303
22 | 72:44.04 | 2:04.37 | 327304 | 336640

Bereichsstatus und Fehler

Gewählter Bereich

Dateiname K:\Die Toten Hosen – Diskografie\Albums\2007 – Die DTH-Jubilaeumsedition (17 CD)\06 – Ein kleines bisschen Horrorschau\Die Toten Hosen – Ein Kleines Bisschen Horroschau.wav

Spitzenpegel 100.0 %
Bereichsqualität 100.0 %
Kopie CRC 2C8F4C21
Kopie OK

Keine Fehler aufgetreten

AccurateRip Übersicht

Track 1 nicht in Datenbank enthalten
Track 2 nicht in Datenbank enthalten
Track 3 nicht in Datenbank enthalten
Track 4 nicht in Datenbank enthalten
Track 5 nicht in Datenbank enthalten
Track 6 nicht in Datenbank enthalten
Track 7 nicht in Datenbank enthalten
Track 8 nicht in Datenbank enthalten
Track 9 nicht in Datenbank enthalten
Track 10 nicht in Datenbank enthalten
Track 11 nicht in Datenbank enthalten
Track 12 nicht in Datenbank enthalten
Track 13 nicht in Datenbank enthalten
Track 14 nicht in Datenbank enthalten
Track 15 nicht in Datenbank enthalten
Track 16 nicht in Datenbank enthalten
Track 17 nicht in Datenbank enthalten
Track 18 nicht in Datenbank enthalten
Track 19 nicht in Datenbank enthalten
Track 20 nicht in Datenbank enthalten
Track 21 nicht in Datenbank enthalten
Track 22 nicht in Datenbank enthalten

Keiner der Tracks ist in der AccurateRip Datenbank vorhanden

Ende des Statusreports

AUDIOCHECKER v2.0 beta (build 457) – by Dester – opdester@freemail.hu
~~~~~~~~~~~~~~~~~~~~~~~~~~~~~~~~~~
-=== DO NOT EDIT THIS FILE! ===-

Path: …\CD 06 – Ein Kleines Bisschen Horrorschau (1988)

001 -=- 01. Hier Kommt Alex.flac -=- CDDA (100%)
002 -=- 02. 1000 Gute Gründe.flac -=- CDDA (100%)
003 -=- 03. Ein Schritt Zuviel.flac -=- CDDA (100%)
004 -=- 04. Keine Ahnung.flac -=- CDDA (100%)
005 -=- 05. Die Farbe Grau.flac -=- CDDA (100%)
006 -=- 06. 180 Grad.flac -=- CDDA (100%)
007 -=- 07. Mehr Davon.flac -=- CDDA (100%)
008 -=- 08. Zahltag.flac -=- CDDA (100%)
009 -=- 09. 35 Jahre.flac -=- CDDA (100%)
010 -=- 10. Musterbeispiel.flac -=- CDDA (99%)
011 -=- 11. Testbild.flac -=- CDDA (100%)
012 -=- 12. Bye, Bye Alex.flac -=- CDDA (100%)
013 -=- 13. Zum Chef (Später Dank).flac -=- CDDA (100%)
014 -=- 14. Jo Singt (Das Wort Zum Sonntag).flac -=- CDDA (99%)
015 -=- 15. Liebeslied.flac -=- CDDA (100%)
016 -=- 16. Die Farbe Grau.flac -=- CDDA (99%)
017 -=- 17. Zahltag.flac -=- CDDA (100%)
018 -=- 18. Musterbeispiel (Aufnahmen Von ‘a Clockwork Orange’).flac -=- CDDA (100%)
019 -=- 19. 1200 Grad.flac -=- CDDA (100%)
020 -=- 20. Einmal In Vier Jahren (Kauf Mich!).flac -=- CDDA (100%)
021 -=- 21. Schwarze Sheriffs (Kauf Mich!).flac -=- CDDA (100%)
022 -=- 22. Zigarettenautomat (Unsterblich).flac -=- CDDA (100%)

Summary 99,86% CDDA

99596260


Leave a Reply

Your email address will not be published. Required fields are marked *

This site uses Akismet to reduce spam. Learn how your comment data is processed.