Die Toten Hosen – Ein Kleines Bisschen Horrorschau




Artist: Die Toten Hosen
Year: 1988
Genre: Punk
Notes: Discogs
Add. Notes:
Cover incl.: Yes
Encoder: FLAC
Bitrate: ~900 kBit/s (44.1 kHz/16 Bit/s)
Log & Cue incl.: Yes
Size: 352,1 MB
Password: “slam” (without ” “)


All Downloads/Hosters are compatible

Download 1
Turbobit.net
NitroFlare.com
KatFile.com
Rapidgator.net
Download 2
Turbobit.net
NitroFlare.com
KatFile.com
Rapidgator.net

Tracklist:

1 - Hier Kommt Alex - 3:53
2 - 1000 Gute Gründe - 3:33
3 - Ein Schritt Zuviel - 2:22
4 - Keine Ahnung - 2:08
5 - Die Farbe Grau - 3:52
6 - 180 Grad - 4:33
7 - Mehr Davon - 5:10
8 - Zahltag - 2:42
9 - 35 Jahre - 2:15
10 - Musterbeispiel - 3:55
11 - Testbild - 3:17
12 - Bye, Bye Alex - 2:59

EAC-Log, CUE-Sheed & NFO:

Click to open spoiler
Exact Audio Copy V0.99 prebeta 4 from 23. January 2008

EAC Auslese-Logdatei vom 15. März 2009, 12:20

Die Toten Hosen / Ein Kleines Bisschen Horrorschau

Benutztes Laufwerk : HL-DT-STDVD-ROM GDR-H30N Adapter: 0 ID: 1

Lesemodus : Sicher
Benutze Accurate Stream : Ja
Audio Puffer abgeschaltet : Ja
Benutze C2 Fehlerinformationen : Nein

Leseoffset Korrektur : 6
Überlesen in das Lead-In und Lead-Out : Nein
Fülle fehlende Offsetsample mit Stille auf : Ja
Lösche führende und nachfolgende stille Blöcke : Nein
Null Samples gehen in CRC Berechnungen ein : Ja
Benutzte Schnittstelle : Installierte externe ASPI Schnittstelle

Benutztes Ausgabeformat : Interne WAV Routinen
Sampleformat : 44.100 Hz; 16 Bit; Stereo

TOC der ausgelesenen CD

Track | Start | Länge | Startsektor | Endsektor
——————————————————-
1 | 0:00.00 | 4:59.45 | 0 | 22469
2 | 4:59.45 | 3:17.45 | 22470 | 37289
3 | 8:17.15 | 2:33.12 | 37290 | 48776
4 | 10:50.27 | 2:20.45 | 48777 | 59321
5 | 13:10.72 | 3:43.70 | 59322 | 76116
6 | 16:54.67 | 4:37.10 | 76117 | 96901
7 | 21:32.02 | 5:22.18 | 96902 | 121069
8 | 26:54.20 | 2:32.57 | 121070 | 132526
9 | 29:27.02 | 2:28.13 | 132527 | 143639
10 | 31:55.15 | 3:55.45 | 143640 | 161309
11 | 35:50.60 | 3:29.47 | 161310 | 177031
12 | 39:20.32 | 3:00.65 | 177032 | 190596

Bereichsstatus und Fehler

Gewählter Bereich

Dateiname K:\Die Toten Hosen – Diskografie\Albums\1988 – Ein kleines bisschen Horrorschau\Die Toten Hosen – Ein Kleines Bisschen Horrorschau.wav

Spitzenpegel 97.9 %
Bereichsqualität 99.9 %
Kopie CRC 0AB0E27C
Kopie OK

Keine Fehler aufgetreten

AccurateRip Übersicht

Track 1 akkurat gelesen (Zuversicht 11) [C805717D]
Track 2 akkurat gelesen (Zuversicht 11) [DB15B2E5]
Track 3 akkurat gelesen (Zuversicht 10) [88676D47]
Track 4 akkurat gelesen (Zuversicht 11) [BCE90D1F]
Track 5 akkurat gelesen (Zuversicht 10) [4794142F]
Track 6 akkurat gelesen (Zuversicht 10) [817712DD]
Track 7 akkurat gelesen (Zuversicht 10) [ACC9DBD6]
Track 8 akkurat gelesen (Zuversicht 11) [B91B7C45]
Track 9 akkurat gelesen (Zuversicht 10) [4A4699C3]
Track 10 akkurat gelesen (Zuversicht 10) [FA8ADC63]
Track 11 akkurat gelesen (Zuversicht 10) [88654F18]
Track 12 akkurat gelesen (Zuversicht 8) [A381BB22]

Alle Tracks wurden akkurat gelesen

Ende des Statusreports

REM GENRE Punk
REM DATE 1988
REM DISCID A109ED0C
REM COMMENT “ExactAudioCopy v0.99pb4”
PERFORMER “Die Toten Hosen”
TITLE “Ein Kleines Bisschen Horrorschau”
FILE “Die Toten Hosen – Ein Kleines Bisschen Horrorschau.flac” WAVE
TRACK 01 AUDIO
TITLE “Hier kommt Alex”
PERFORMER “Die Toten Hosen”
INDEX 01 00:00:00
TRACK 02 AUDIO
TITLE “1000 Gute Gründe”
PERFORMER “Die Toten Hosen”
INDEX 01 04:59:45
TRACK 03 AUDIO
TITLE “Ein Schritt zuviel”
PERFORMER “Die Toten Hosen”
INDEX 01 08:17:15
TRACK 04 AUDIO
TITLE “Keine Ahnung”
PERFORMER “Die Toten Hosen”
INDEX 01 10:50:27
TRACK 05 AUDIO
TITLE “Die Farbe Grau”
PERFORMER “Die Toten Hosen”
INDEX 01 13:10:72
TRACK 06 AUDIO
TITLE “180 Grad”
PERFORMER “Die Toten Hosen”
INDEX 01 16:54:67
TRACK 07 AUDIO
TITLE “Mehr davon”
PERFORMER “Die Toten Hosen”
INDEX 00 21:30:42
INDEX 01 21:32:02
TRACK 08 AUDIO
TITLE “Zahltag”
PERFORMER “Die Toten Hosen”
INDEX 01 26:54:20
TRACK 09 AUDIO
TITLE “35 Jahre”
PERFORMER “Die Toten Hosen”
INDEX 01 29:27:02
TRACK 10 AUDIO
TITLE “Musterbeispiel”
PERFORMER “Die Toten Hosen”
INDEX 01 31:55:15
TRACK 11 AUDIO
TITLE “Testbild”
PERFORMER “Die Toten Hosen”
INDEX 01 35:50:60
TRACK 12 AUDIO
TITLE “Bye, Bye Alex”
PERFORMER “Die Toten Hosen”
INDEX 01 39:20:32


Leave a Reply

Your email address will not be published. Required fields are marked *

This site uses Akismet to reduce spam. Learn how your comment data is processed.