Die Toten Hosen – Damenwahl




Artist: Die Toten Hosen
Year: 1986
Genre: Punk
Notes: Discogs
Add. Notes:
Cover incl.: Yes
Encoder: FLAC
Bitrate: ~900 kBit/s (44.1 kHz/16 Bit/s)
Log & Cue incl.: Yes
Size: 355,25 MB
Password: “slam” (without ” “)


All Downloads/Hosters are compatible

Download 1
Turbobit.net
Rapidgator.net
KatFile.com
UploadRar.com
Download 2
Turbobit.net
Rapidgator.net
KatFile.com
UploadRar.com

Tracklist:

1 - Sojus Nerushimai Republic Swobodnich - 0:25
2 - Disco In Moskau - 3:50
3 - Verschwende Deine Zeit - 2:59
4 - Freitag Der 13. - 3:47
5 - Bis Zum Bitteren Ende - 2:03
6 - Schwarzwaldklinik - 3:16
7 - Wort Zum Sonntag - 4:27
8 - Ehrenmann - 3:33
9 - Helmstedt Blues - 0:21
10 - Großalarm - 3:35
11 - Spielzeugland - 2:47
12 - Verflucht, Verdammt, Gebrandmarkt - 3:37
13 - Agent X - 3:42
14 - Das Altbier Lied - 3:15

EAC-Log, CUE-Sheed & NFO:

Click to open spoiler
Exact Audio Copy V0.99 prebeta 4 from 23. January 2008

EAC Auslese-Logdatei vom 15. März 2009, 11:18

Toten Hosen / Damenwahl

Benutztes Laufwerk : HL-DT-STDVD-ROM GDR-H30N Adapter: 0 ID: 1

Lesemodus : Sicher
Benutze Accurate Stream : Ja
Audio Puffer abgeschaltet : Ja
Benutze C2 Fehlerinformationen : Nein

Leseoffset Korrektur : 6
Überlesen in das Lead-In und Lead-Out : Nein
Fülle fehlende Offsetsample mit Stille auf : Ja
Lösche führende und nachfolgende stille Blöcke : Nein
Null Samples gehen in CRC Berechnungen ein : Ja
Benutzte Schnittstelle : Installierte externe ASPI Schnittstelle

Benutztes Ausgabeformat : Interne WAV Routinen
Sampleformat : 44.100 Hz; 16 Bit; Stereo

TOC der ausgelesenen CD

Track | Start | Länge | Startsektor | Endsektor
——————————————————-
1 | 0:00.00 | 0:38.15 | 0 | 2864
2 | 0:38.15 | 3:22.22 | 2865 | 18036
3 | 4:00.37 | 2:59.23 | 18037 | 31484
4 | 6:59.60 | 3:48.17 | 31485 | 48601
5 | 10:48.02 | 2:06.33 | 48602 | 58084
6 | 12:54.35 | 3:25.65 | 58085 | 73524
7 | 16:20.25 | 4:20.55 | 73525 | 93079
8 | 20:41.05 | 3:34.35 | 93080 | 109164
9 | 24:15.40 | 0:21.20 | 109165 | 110759
10 | 24:36.60 | 3:37.52 | 110760 | 127086
11 | 28:14.37 | 2:48.38 | 127087 | 139724
12 | 31:03.00 | 3:38.57 | 139725 | 156131
13 | 34:41.57 | 3:46.25 | 156132 | 173106
14 | 38:28.07 | 3:19.20 | 173107 | 188051

Bereichsstatus und Fehler

Gewählter Bereich

Dateiname K:\Die Toten Hosen – Diskografie\Albums\1986 – Damenwahl\Toten Hosen – Damenwahl.wav

Spitzenpegel 100.0 %
Bereichsqualität 100.0 %
Kopie CRC 80B84871
Kopie OK

Keine Fehler aufgetreten

AccurateRip Übersicht

Track 1 akkurat gelesen (Zuversicht 9) [231EE081]
Track 2 akkurat gelesen (Zuversicht 9) [4CA3FB9B]
Track 3 akkurat gelesen (Zuversicht 9) [86C8A92E]
Track 4 akkurat gelesen (Zuversicht 8) [EDADF80A]
Track 5 akkurat gelesen (Zuversicht 9) [7B1C1C77]
Track 6 akkurat gelesen (Zuversicht 9) [99D4B9F7]
Track 7 akkurat gelesen (Zuversicht 9) [25C126FC]
Track 8 akkurat gelesen (Zuversicht 9) [06713AC2]
Track 9 akkurat gelesen (Zuversicht 9) [B1F9F88A]
Track 10 akkurat gelesen (Zuversicht 9) [DE12FF1E]
Track 11 akkurat gelesen (Zuversicht 9) [A3141608]
Track 12 akkurat gelesen (Zuversicht 9) [74F96C2E]
Track 13 akkurat gelesen (Zuversicht 9) [05B542DB]
Track 14 akkurat gelesen (Zuversicht 9) [F52A00FC]

Alle Tracks wurden akkurat gelesen

Ende des Statusreports

REM GENRE Punk
REM DATE 1986
REM DISCID B309CB0E
REM COMMENT “ExactAudioCopy v0.99pb4”
PERFORMER “Toten Hosen”
TITLE “Damenwahl”
FILE “Toten Hosen – Damenwahl.flac” WAVE
TRACK 01 AUDIO
TITLE “Sojus Nerushimai Republic Swobodnich”
PERFORMER “Toten Hosen”
INDEX 01 00:00:00
TRACK 02 AUDIO
TITLE “Disco In Moskau”
PERFORMER “Toten Hosen”
INDEX 00 00:38:12
INDEX 01 00:38:15
TRACK 03 AUDIO
TITLE “Verschwende Deine Zeit”
PERFORMER “Toten Hosen”
INDEX 00 04:00:35
INDEX 01 04:00:37
TRACK 04 AUDIO
TITLE “Freitag Der 13.”
PERFORMER “Toten Hosen”
INDEX 00 06:59:57
INDEX 01 06:59:60
TRACK 05 AUDIO
TITLE “Bis Zum Bitteren Ende”
PERFORMER “Toten Hosen”
INDEX 00 10:48:00
INDEX 01 10:48:02
TRACK 06 AUDIO
TITLE “Schwarzwaldklinik”
PERFORMER “Toten Hosen”
INDEX 00 12:54:32
INDEX 01 12:54:35
TRACK 07 AUDIO
TITLE “Wort Zum Sonntag”
PERFORMER “Toten Hosen”
INDEX 00 16:20:22
INDEX 01 16:20:25
TRACK 08 AUDIO
TITLE “Ehrenmann”
PERFORMER “Toten Hosen”
INDEX 00 20:41:02
INDEX 01 20:41:05
TRACK 09 AUDIO
TITLE “Helmstedt Blues”
PERFORMER “Toten Hosen”
INDEX 00 24:15:37
INDEX 01 24:15:40
TRACK 10 AUDIO
TITLE “Großalarm”
PERFORMER “Toten Hosen”
INDEX 00 24:36:57
INDEX 01 24:36:60
TRACK 11 AUDIO
TITLE “Spielzeugland”
PERFORMER “Toten Hosen”
INDEX 00 28:14:35
INDEX 01 28:14:37
TRACK 12 AUDIO
TITLE “Verflucht, Verdammt, Gebrandmarkt”
PERFORMER “Toten Hosen”
INDEX 00 31:02:72
INDEX 01 31:03:00
TRACK 13 AUDIO
TITLE “Agent X”
PERFORMER “Toten Hosen”
INDEX 00 34:41:55
INDEX 01 34:41:57
TRACK 14 AUDIO
TITLE “Das Altbierlied”
PERFORMER “Toten Hosen”
INDEX 00 38:28:05
INDEX 01 38:28:07


Leave a Reply

Your email address will not be published. Required fields are marked *

This site uses Akismet to reduce spam. Learn how your comment data is processed.