Die Toten Hosen – Damenwahl (Remastered)




Artist: Die Toten Hosen
Year: 1986/2007
Genre: Punk
Notes: Discogs
Add. Notes: Remastered
Cover incl.: Yes
Encoder: FLAC
Bitrate: ~1100 kBit/s (44.1 kHz/16 Bit/s)
Log & Cue incl.: Yes
Size: 602 MB
Password: “slam” (without ” “)


All Downloads/Hosters are compatible

Download 1
KatFile.com
Turbobit.net
Rapidgator.net
Turbobit.net
Download 2
KatFile.com
Turbobit.net
Rapidgator.net
Turbobit.net

Tracklist:

1  Sojus Nerushimai Republic 
Swobodnich  
2  Disco In Moskau  
3  Verschwende Deine Zeit  
4  Freitag Der 13.  
5  Bis Zum Bitteren Ende  
6  Schwarzwaldklinik  
7  Wort Zum Sonntag  
8  Ehrenmann  
9  Helmstedt Blues  
10  Großalarm  
11  Spielzeugland  
12  Verflucht, Verdammt, 
Gebrandmarkt  
13  Agent X  
14  Das Altbier Lied  
Erweiterte Auswahl
15  Übung Macht Den Meister 
("Altbierlied", Single, 
1986)  
16  Zapfenstreich ("Damenwahl", 
Demos, 1985) 
 
17  Disco In Moscow ("Damenwahl", 
Demos, 1985) 
18  Spielzeugland ("Damenwahl", 
Demos, 1985) 
19  Bombenstimmung ("Damenwahl", 
Demos, 1985) 
20  Großalarm ("Damenwahl", 
Demos, 1985) 
21  Nur Im Traum ("Damenwahl", 
Demos, 1985) 
22  Schwarzwaldklinik ("Damenwahl", 
Demos, 1985) 
23  Das Kleine ABC ("Kauf MICH!, 
Demos, 1993) 
24  Aufgeben (Gilt Nicht) ("Kauf 
MICH!, Demos, 
1993)  
25  Gipfelstürmer ("Kauf MICH!, 
Demos, 1993)

EAC-Log, CUE-Sheed & NFO:

Click to open spoiler
Exact Audio Copy V0.99 prebeta 3 from 28. July 2007

EAC Auslese-Logdatei vom 8. November 2008, 12:22

Die Toten Hosen / Damenwahl

Benutztes Laufwerk : HL-DT-STDVD-ROM GDR-H30N Adapter: 0 ID: 1

Lesemodus : Sicher
Benutze Accurate Stream : Ja
Audio Puffer abgeschaltet : Ja
Benutze C2 Fehlerinformationen : Nein

Leseoffset Korrektur : 6
Überlesen in das Lead-In und Lead-Out : Nein
Fülle fehlende Offsetsample mit Stille auf : Ja
Lösche führende und nachfolgende stille Blöcke : Nein
Null Samples gehen in CRC Berechnungen ein : Ja
Benutzte Schnittstelle : Installierte externe ASPI Schnittstelle

Benutztes Ausgabeformat : Interne WAV Routinen
Sampleformat : 44.100 Hz; 16 Bit; Stereo

TOC der ausgelesenen CD

Track | Start | Länge | Startsektor | Endsektor
——————————————————-
1 | 0:00.00 | 0:39.46 | 0 | 2970
2 | 0:39.46 | 3:22.53 | 2971 | 18173
3 | 4:02.24 | 2:59.45 | 18174 | 31643
4 | 7:01.69 | 3:48.40 | 31644 | 48783
5 | 10:50.34 | 2:06.56 | 48784 | 58289
6 | 12:57.15 | 3:26.05 | 58290 | 73744
7 | 16:23.20 | 4:20.25 | 73745 | 93269
8 | 20:43.45 | 3:35.53 | 93270 | 109447
9 | 24:19.23 | 0:21.23 | 109448 | 111045
10 | 24:40.46 | 3:38.10 | 111046 | 127405
11 | 28:18.56 | 2:48.57 | 127406 | 140062
12 | 31:07.38 | 3:39.14 | 140063 | 156501
13 | 34:46.52 | 3:46.54 | 156502 | 173505
14 | 38:33.31 | 3:18.58 | 173506 | 188413
15 | 41:52.14 | 1:59.29 | 188414 | 197367
16 | 43:51.43 | 3:22.74 | 197368 | 212591
17 | 47:14.42 | 3:09.41 | 212592 | 226807
18 | 50:24.08 | 2:57.31 | 226808 | 240113
19 | 53:21.39 | 2:54.24 | 240114 | 253187
20 | 56:15.63 | 3:54.31 | 253188 | 270768
21 | 60:10.19 | 2:39.20 | 270769 | 282713
22 | 62:49.39 | 3:36.66 | 282714 | 298979
23 | 66:26.30 | 3:34.48 | 298980 | 315077
24 | 70:01.03 | 5:01.07 | 315078 | 337659
25 | 75:02.10 | 3:45.48 | 337660 | 354582

Bereichsstatus und Fehler

Gewählter Bereich

Dateiname K:\Die Toten Hosen – Diskografie\Albums\2007 – Die DTH-Jubilaeumsedition (17 CD)\03 – Damenwahl\Die Toten Hosen – Damenwahl.wav

Spitzenpegel 100.0 %
Bereichsqualität 100.0 %
Kopie CRC 86AD4FB4
Kopie OK

Keine Fehler aufgetreten

AccurateRip Übersicht

Track 1 akkurat gelesen (Zuversicht 4) [1708D08F]
Track 2 akkurat gelesen (Zuversicht 4) [173AF0D7]
Track 3 akkurat gelesen (Zuversicht 4) [D4EC88DE]
Track 4 akkurat gelesen (Zuversicht 4) [CCC5AA3E]
Track 5 akkurat gelesen (Zuversicht 6) [50AAA5FB]
Track 6 akkurat gelesen (Zuversicht 4) [DB4B1030]
Track 7 akkurat gelesen (Zuversicht 4) [24C5F309]
Track 8 akkurat gelesen (Zuversicht 4) [5EEFBBD5]
Track 9 akkurat gelesen (Zuversicht 4) [541C6781]
Track 10 akkurat gelesen (Zuversicht 4) [6B34A7F2]
Track 11 akkurat gelesen (Zuversicht 4) [EC1E7292]
Track 12 akkurat gelesen (Zuversicht 4) [7AB25601]
Track 13 akkurat gelesen (Zuversicht 4) [49B47B3E]
Track 14 akkurat gelesen (Zuversicht 4) [18737B67]
Track 15 akkurat gelesen (Zuversicht 4) [40D335C4]
Track 16 akkurat gelesen (Zuversicht 4) [78738830]
Track 17 akkurat gelesen (Zuversicht 4) [F7ED459A]
Track 18 akkurat gelesen (Zuversicht 4) [6E34D2F5]
Track 19 akkurat gelesen (Zuversicht 4) [AED99596]
Track 20 akkurat gelesen (Zuversicht 4) [17B92CA6]
Track 21 akkurat gelesen (Zuversicht 4) [9CD99000]
Track 22 akkurat gelesen (Zuversicht 4) [B570AFF3]
Track 23 akkurat gelesen (Zuversicht 4) [21A67DCA]
Track 24 akkurat gelesen (Zuversicht 4) [530290A1]
Track 25 akkurat gelesen (Zuversicht 4) [8F212865]

Alle Tracks wurden akkurat gelesen

Ende des Statusreports

AUDIOCHECKER v2.0 beta (build 457) – by Dester – opdester@freemail.hu
~~~~~~~~~~~~~~~~~~~~~~~~~~~~~~~~~~
-=== DO NOT EDIT THIS FILE! ===-

Path: …\CD 03 – Damenwahl (1986)

001 -=- 01. Sojus Nerushimai Republic Swobodnich.flac -=- CDDA (100%)
002 -=- 02. Disco In Moskau.flac -=- CDDA (100%)
003 -=- 03. Verschwende Deine Zeit.flac -=- CDDA (100%)
004 -=- 04. Freitag Der 13..flac -=- CDDA (100%)
005 -=- 05. Bis Zum Bitteren Ende.flac -=- CDDA (100%)
006 -=- 06. Schwarzwaldklinik.flac -=- CDDA (100%)
007 -=- 07. Wort Zum Sonntag.flac -=- CDDA (100%)
008 -=- 08. Ehrenmann.flac -=- CDDA (100%)
009 -=- 09. Helmstedt Blues.flac -=- CDDA (100%)
010 -=- 10. Großalarm.flac -=- CDDA (100%)
011 -=- 11. Spielzeugalarm.flac -=- CDDA (100%)
012 -=- 12. Verflucht, Verdammt, Gebrandmarkt.flac -=- CDDA (100%)
013 -=- 13. Agent X.flac -=- CDDA (100%)
014 -=- 14. Das Altbierlied.flac -=- CDDA (100%)
015 -=- 15. Übung Macht Den Meister (Das Altbierlied-Single).flac -=- CDDA (100%)
016 -=- 16. Zapfenstreich (Demo).flac -=- CDDA (99%)
017 -=- 17. Disco In Moscow (Demo).flac -=- CDDA (100%)
018 -=- 18. Spielzeugland (Demo).flac -=- CDDA (99%)
019 -=- 19. Bombenstimmung (Demo).flac -=- CDDA (100%)
020 -=- 20. Großalarm (Demo).flac -=- CDDA (100%)
021 -=- 21. Nur Im Traum (Demo).flac -=- CDDA (100%)
022 -=- 22. Schwarzwaldklinik (Demo).flac -=- CDDA (100%)
023 -=- 23. Das Kleine Abc (Demo).flac -=- CDDA (100%)
024 -=- 24. Aufgeben (Gilt Nicht) (Demo).flac -=- CDDA (100%)
025 -=- 25. Gipfelstürmer (Demo).flac -=- CDDA (99%)

Summary 99,88% CDDA

62183668


Leave a Reply

Your email address will not be published. Required fields are marked *

This site uses Akismet to reduce spam. Learn how your comment data is processed.