Die Toten Hosen – Crash-Landing




Artist: Die Toten Hosen
Year: 1999
Genre: Punk
Notes: Discogs
Add. Notes:
Cover incl.: Yes
Encoder: FLAC
Bitrate: ~1000 kBit/s (44.1 kHz/16 Bit/s)
Log & Cue incl.: Yes
Size: 498,87 MB
Password: “slam” (without ” “)


All Downloads/Hosters are compatible

Download 1
Turbobit.net
KatFile.com
Rapidgator.net
Download 2
Turbobit.net
KatFile.com
Rapidgator.net

Tracklist:

1 - The Producer - 0:44
2 - The Product - 1:23
3 - The Fly - 2:01
4 - Man - 4:05
5 - Pushed Again - 3:49
6 - Big Bad Wolf - 3:53
7 - Bonnie & Clyde - 3:33
8 - Hopeless Happy Song - 2:55
9 - I Am The Walrus - 3:06
10 - I Fought The Law - 2:35
11 - No Escape - 3:33
12 - Soul Therapy - 5:13
13 - Viva La Revolution - 4:31
14 - Disneyland (Stays The Same) - 3:27
15 - Revenge - 4:00
16 - Beautiful Day - 3:24

EAC-Log, CUE-Sheed & NFO:

Click to open spoiler
Exact Audio Copy V0.99 prebeta 4 from 23. January 2008

EAC Auslese-Logdatei vom 15. März 2009, 15:26

Die Toten Hosen / Crash Landing

Benutztes Laufwerk : HL-DT-STDVD-ROM GDR-H30N Adapter: 0 ID: 1

Lesemodus : Sicher
Benutze Accurate Stream : Ja
Audio Puffer abgeschaltet : Ja
Benutze C2 Fehlerinformationen : Nein

Leseoffset Korrektur : 6
Überlesen in das Lead-In und Lead-Out : Nein
Fülle fehlende Offsetsample mit Stille auf : Ja
Lösche führende und nachfolgende stille Blöcke : Nein
Null Samples gehen in CRC Berechnungen ein : Ja
Benutzte Schnittstelle : Installierte externe ASPI Schnittstelle

Benutztes Ausgabeformat : Interne WAV Routinen
Sampleformat : 44.100 Hz; 16 Bit; Stereo

TOC der ausgelesenen CD

Track | Start | Länge | Startsektor | Endsektor
——————————————————-
1 | 0:00.00 | 0:44.21 | 0 | 3320
2 | 0:44.21 | 1:23.33 | 3321 | 9578
3 | 2:07.54 | 2:01.12 | 9579 | 18665
4 | 4:08.66 | 4:10.18 | 18666 | 37433
5 | 8:19.09 | 3:50.42 | 37434 | 54725
6 | 12:09.51 | 3:53.12 | 54726 | 72212
7 | 16:02.63 | 3:33.24 | 72213 | 88211
8 | 19:36.12 | 2:55.30 | 88212 | 101366
9 | 22:31.42 | 3:05.45 | 101367 | 115286
10 | 25:37.12 | 2:35.06 | 115287 | 126917
11 | 28:12.18 | 3:32.27 | 126918 | 142844
12 | 31:44.45 | 5:12.54 | 142845 | 166298
13 | 36:57.24 | 4:31.54 | 166299 | 186677
14 | 41:29.03 | 3:26.27 | 186678 | 202154
15 | 44:55.30 | 3:59.33 | 202155 | 220112
16 | 48:54.63 | 3:23.46 | 220113 | 235383

Bereichsstatus und Fehler

Gewählter Bereich

Dateiname K:\Die Toten Hosen – Diskografie\Albums\1999 – Crash-Landing\Die Toten Hosen – Crash Landing.wav

Spitzenpegel 99.2 %
Bereichsqualität 100.0 %
Kopie CRC 1B559E19
Kopie OK

Keine Fehler aufgetreten

AccurateRip Übersicht

Track 1 kann nicht als akkurat verifiziert werden (Zuversicht 7) [972367D6], AccurateRip lieferte [DAD24631]
Track 2 kann nicht als akkurat verifiziert werden (Zuversicht 7) [596F776A], AccurateRip lieferte [79FFAA75]
Track 3 kann nicht als akkurat verifiziert werden (Zuversicht 7) [ABA22276], AccurateRip lieferte [E9259B14]
Track 4 kann nicht als akkurat verifiziert werden (Zuversicht 7) [3C1B5B0D], AccurateRip lieferte [3C2D020D]
Track 5 kann nicht als akkurat verifiziert werden (Zuversicht 7) [C5336AEF], AccurateRip lieferte [510F388F]
Track 6 kann nicht als akkurat verifiziert werden (Zuversicht 7) [C5583341], AccurateRip lieferte [DD2DECC7]
Track 7 kann nicht als akkurat verifiziert werden (Zuversicht 7) [F029ACB5], AccurateRip lieferte [2D4DA8F7]
Track 8 kann nicht als akkurat verifiziert werden (Zuversicht 7) [06602D8A], AccurateRip lieferte [4AAEBB4A]
Track 9 kann nicht als akkurat verifiziert werden (Zuversicht 7) [7FA4B915], AccurateRip lieferte [ACCCA4CB]
Track 10 kann nicht als akkurat verifiziert werden (Zuversicht 7) [7DF01780], AccurateRip lieferte [4F67274A]
Track 11 kann nicht als akkurat verifiziert werden (Zuversicht 7) [C757BB2D], AccurateRip lieferte [89C2C46E]
Track 12 kann nicht als akkurat verifiziert werden (Zuversicht 7) [198928EE], AccurateRip lieferte [94230B1C]
Track 13 kann nicht als akkurat verifiziert werden (Zuversicht 7) [B3D49A07], AccurateRip lieferte [4549CAE4]
Track 14 kann nicht als akkurat verifiziert werden (Zuversicht 7) [F6EFA6E4], AccurateRip lieferte [9546DD3E]
Track 15 kann nicht als akkurat verifiziert werden (Zuversicht 7) [CBFC89EC], AccurateRip lieferte [B80A53A8]
Track 16 kann nicht als akkurat verifiziert werden (Zuversicht 6) [6830C7CB], AccurateRip lieferte [FA277FB5]

Kein Track konnte als akkurat verifiziert werden
Es könnte sich um eine andere Pressung als von der in der Datenbank vorhandenen handeln

Ende des Statusreports

REM GENRE “Punk Rock”
REM DATE 1999
REM DISCID E00C4210
REM COMMENT “ExactAudioCopy v0.99pb4”
PERFORMER “Die Toten Hosen”
TITLE “Crash Landing”
FILE “Die Toten Hosen – Crash Landing.wav” WAVE
TRACK 01 AUDIO
TITLE “The Producer”
PERFORMER “Die Toten Hosen”
INDEX 01 00:00:00
TRACK 02 AUDIO
TITLE “The Product”
PERFORMER “Die Toten Hosen”
INDEX 01 00:44:21
TRACK 03 AUDIO
TITLE “The Fly”
PERFORMER “Die Toten Hosen”
INDEX 01 02:07:54
TRACK 04 AUDIO
TITLE “Man”
PERFORMER “Die Toten Hosen”
INDEX 01 04:08:66
TRACK 05 AUDIO
TITLE “Pushed Again”
PERFORMER “Die Toten Hosen”
INDEX 01 08:19:09
TRACK 06 AUDIO
TITLE “Big Bad Wolf”
PERFORMER “Die Toten Hosen”
INDEX 01 12:09:51
TRACK 07 AUDIO
TITLE “Bonnie & Clyde”
PERFORMER “Die Toten Hosen”
INDEX 01 16:02:63
TRACK 08 AUDIO
TITLE “Hopeless Happy Song”
PERFORMER “Die Toten Hosen”
INDEX 01 19:36:12
TRACK 09 AUDIO
TITLE “I Am The Walrus”
PERFORMER “Die Toten Hosen”
INDEX 01 22:31:42
TRACK 10 AUDIO
TITLE “I Faught The Law”
PERFORMER “Die Toten Hosen”
INDEX 01 25:37:12
TRACK 11 AUDIO
TITLE “No Escape”
PERFORMER “Die Toten Hosen”
INDEX 01 28:12:18
TRACK 12 AUDIO
TITLE “Soul Therapy”
PERFORMER “Die Toten Hosen”
INDEX 01 31:44:45
TRACK 13 AUDIO
TITLE “Viva La Revolution”
PERFORMER “Die Toten Hosen”
INDEX 01 36:57:24
TRACK 14 AUDIO
TITLE “Disneyland (Stays The Same)”
PERFORMER “Die Toten Hosen”
INDEX 01 41:29:03
TRACK 15 AUDIO
TITLE “Revenge”
PERFORMER “Die Toten Hosen”
INDEX 01 44:55:30
TRACK 16 AUDIO
TITLE “Beautiful Day”
PERFORMER “Die Toten Hosen”
INDEX 01 48:54:63


Leave a Reply

Your email address will not be published. Required fields are marked *

Enter the text from the image below
 

This site uses Akismet to reduce spam. Learn how your comment data is processed.