Die Toten Hosen – Bis zum bitteren Ende! – Live (Remastered)




Artist: Die Toten Hosen
Year: 1984/2007
Genre: Punk
Notes: Discogs
Add. Notes: Remastered
Cover incl.: Yes
Encoder: FLAC
Bitrate: ~1100 kBit/s (44.1 kHz/16 Bit/s)
Log & Cue incl.: Yes
Size: 579 MB
Password: “slam” (without ” “)


All Downloads/Hosters are compatible

Download 1
KatFile.com
Turbobit.net
Rapidgator.net
Turbobit.net
Download 2
KatFile.com
Turbobit.net
Rapidgator.net
Turbobit.net

Tracklist:

Bis Zum Bitteren Ende
1 - Rock 'N' Roll - 3:05
2 - Liebesspieler - 2:36
3 - Warten Auf Dich - 3:16
4 - Armee Der Verlierer - 2:45
5 - Liebeslied - 3:39
6 - Disco In Moskau - 3:07
7 - Das Wort Zum Sonntag - 4:17
8 - Police On My Back - 2:13
9 - Schwarzwaldklinik - 3:08
10 - Opel-Gang - 2:01
11 - Die Rosen Geben 'ne Party - 
1:30
12 - Bis Zum Bitteren Ende - 4:40
13 - Happy Metal Part I (Adagio) - 
1:18
14 - Freitag Der 13. - 3:27
15 - Happy Metal Part II (Allegro) - 
0:39
16 - Betrunken Im Dienst - 2:13
17 - Happy Metal Part III (Forte 
Fortissimo) - 0:46
18 - Eisgekühlter Bommerlunder - 
3:56
Und Weiter (Live In Edinbourgh 
1992)
19 - Blitzkrieg Bop - 2:18
20 - Opel-Gang - 1:27
21 - Musterbeispiel - 2:56
22 - Whole Wide World - 3:17
23 - Liebeslied - 3:44
24 - Do Anything You Wanna Do - 
3:36
25 - Carnival In Rio (Punk Was) - 
3:06
26 - All Die Ganzen Jahre - 3:59

EAC-Log, CUE-Sheed & NFO:

Click to open spoiler
Exact Audio Copy V0.99 prebeta 3 from 28. July 2007

EAC Auslese-Logdatei vom 9. November 2008, 0:45

Die Toten Hosen / Bis zum bitteren Ende (Remastered)

Benutztes Laufwerk : HL-DT-STDVD-ROM GDR-H30N Adapter: 0 ID: 1

Lesemodus : Sicher
Benutze Accurate Stream : Ja
Audio Puffer abgeschaltet : Ja
Benutze C2 Fehlerinformationen : Nein

Leseoffset Korrektur : 6
Überlesen in das Lead-In und Lead-Out : Nein
Fülle fehlende Offsetsample mit Stille auf : Ja
Lösche führende und nachfolgende stille Blöcke : Nein
Null Samples gehen in CRC Berechnungen ein : Ja
Benutzte Schnittstelle : Installierte externe ASPI Schnittstelle

Benutztes Ausgabeformat : Interne WAV Routinen
Sampleformat : 44.100 Hz; 16 Bit; Stereo

TOC der ausgelesenen CD

Track | Start | Länge | Startsektor | Endsektor
——————————————————-
1 | 0:00.00 | 3:04.44 | 0 | 13843
2 | 3:04.44 | 2:35.69 | 13844 | 25537
3 | 5:40.38 | 3:15.56 | 25538 | 40218
4 | 8:56.19 | 2:45.22 | 40219 | 52615
5 | 11:41.41 | 3:38.47 | 52616 | 69012
6 | 15:20.13 | 3:07.07 | 69013 | 83044
7 | 18:27.20 | 4:17.09 | 83045 | 102328
8 | 22:44.29 | 2:12.62 | 102329 | 112290
9 | 24:57.16 | 3:08.21 | 112291 | 126411
10 | 28:05.37 | 2:01.11 | 126412 | 135497
11 | 30:06.48 | 1:30.24 | 135498 | 142271
12 | 31:36.72 | 4:40.15 | 142272 | 163286
13 | 36:17.12 | 1:17.49 | 163287 | 169110
14 | 37:34.61 | 3:26.60 | 169111 | 184620
15 | 41:01.46 | 0:38.50 | 184621 | 187520
16 | 41:40.21 | 2:12.68 | 187521 | 197488
17 | 43:53.14 | 0:46.03 | 197489 | 200941
18 | 44:39.17 | 3:56.10 | 200942 | 218651
19 | 48:35.27 | 2:18.37 | 218652 | 229038
20 | 50:53.64 | 1:27.17 | 229039 | 235580
21 | 52:21.06 | 2:56.01 | 235581 | 248781
22 | 55:17.07 | 3:16.48 | 248782 | 263529
23 | 58:33.55 | 3:43.74 | 263530 | 280328
24 | 62:17.54 | 3:36.02 | 280329 | 296530
25 | 65:53.56 | 3:06.25 | 296531 | 310505
26 | 69:00.06 | 3:58.61 | 310506 | 328416

Bereichsstatus und Fehler

Gewählter Bereich

Dateiname K:\Die Toten Hosen – Diskografie\Albums\2007 – Die DTH-Jubilaeumsedition (17 CD)\05 – Bis zum bitteren Ende\Die Toten Hosen – Bis zum bitteren Ende (Remastered).wav

Spitzenpegel 100.0 %
Bereichsqualität 100.0 %
Kopie CRC 3FC2D797
Kopie OK

Keine Fehler aufgetreten

AccurateRip Übersicht

Track 1 nicht in Datenbank enthalten
Track 2 nicht in Datenbank enthalten
Track 3 nicht in Datenbank enthalten
Track 4 nicht in Datenbank enthalten
Track 5 nicht in Datenbank enthalten
Track 6 nicht in Datenbank enthalten
Track 7 nicht in Datenbank enthalten
Track 8 nicht in Datenbank enthalten
Track 9 nicht in Datenbank enthalten
Track 10 nicht in Datenbank enthalten
Track 11 nicht in Datenbank enthalten
Track 12 nicht in Datenbank enthalten
Track 13 nicht in Datenbank enthalten
Track 14 nicht in Datenbank enthalten
Track 15 nicht in Datenbank enthalten
Track 16 nicht in Datenbank enthalten
Track 17 nicht in Datenbank enthalten
Track 18 nicht in Datenbank enthalten
Track 19 nicht in Datenbank enthalten
Track 20 nicht in Datenbank enthalten
Track 21 nicht in Datenbank enthalten
Track 22 nicht in Datenbank enthalten
Track 23 nicht in Datenbank enthalten
Track 24 nicht in Datenbank enthalten
Track 25 nicht in Datenbank enthalten
Track 26 nicht in Datenbank enthalten

Keiner der Tracks ist in der AccurateRip Datenbank vorhanden

Ende des Statusreports

————

REM GENRE “Punk Rock”
REM DATE 1987
REM DISCID D50B620E
REM COMMENT “ExactAudioCopy v0.99pb4”
PERFORMER “Die Toten Hosen”
TITLE “Bis zum bitteren Ende”
FILE “Die Toten Hosen – Bis zum bitteren Ende.flac” WAVE
TRACK 01 AUDIO
TITLE “Rock ‘n’ Roll”
PERFORMER “Die Toten Hosen”
INDEX 01 00:00:00
TRACK 02 AUDIO
TITLE “Liebesspieler”
PERFORMER “Die Toten Hosen”
INDEX 01 03:04:42
TRACK 03 AUDIO
TITLE “Warten auf Dich”
PERFORMER “Die Toten Hosen”
INDEX 01 05:40:40
TRACK 04 AUDIO
TITLE “Armee der Verlierer”
PERFORMER “Die Toten Hosen”
INDEX 01 08:56:02
TRACK 05 AUDIO
TITLE “Liebeslied”
PERFORMER “Die Toten Hosen”
INDEX 01 11:41:20
TRACK 06 AUDIO
TITLE “Disco in Moskau”
PERFORMER “Die Toten Hosen”
INDEX 01 15:19:65
TRACK 07 AUDIO
TITLE “Das Wort zum Sonntag”
PERFORMER “Die Toten Hosen”
INDEX 01 18:27:02
TRACK 08 AUDIO
TITLE “Police on My Back”
PERFORMER “Die Toten Hosen”
INDEX 01 22:44:12
TRACK 09 AUDIO
TITLE “Schwarzwaldklinik”
PERFORMER “Die Toten Hosen”
INDEX 01 24:57:05
TRACK 10 AUDIO
TITLE “Opel-Gang”
PERFORMER “Die Toten Hosen”
INDEX 01 28:05:12
TRACK 11 AUDIO
TITLE “Die Rosen geben ‘ne Party”
PERFORMER “Die Toten Hosen”
INDEX 01 30:06:05
TRACK 12 AUDIO
TITLE “Bis zum bitteren Ende”
PERFORMER “Die Toten Hosen”
INDEX 01 31:36:40
TRACK 13 AUDIO
TITLE “Happy Metal Part I (Adagio) – Freitag der 13. – Happy Metal Part II (Allegro)…”
PERFORMER “Die Toten Hosen”
INDEX 01 36:16:32
TRACK 14 AUDIO
TITLE “Eisgekühlter Bommerlunder”
PERFORMER “Die Toten Hosen”
INDEX 01 44:38:42


Leave a Reply

Your email address will not be published. Required fields are marked *

This site uses Akismet to reduce spam. Learn how your comment data is processed.