Die Toten Hosen – Bis Zum Bitteren Ende – Live!




Artist: Die Toten Hosen
Year: 1987
Genre: Punk
Notes: Discogs
Add. Notes:
Cover incl.: Yes
Encoder: FLAC
Bitrate: ~1000 kBit/s (44.1 kHz/16 Bit/s)
Log & Cue incl.: Yes
Size: 424,49 MB
Password: “slam” (without ” “)


All Downloads/Hosters are compatible

Download 1
Turbobit.net
Rapidgator.net
KatFile.com
UploadRar.com
Download 2
Turbobit.net
Rapidgator.net
KatFile.com
UploadRar.com

Tracklist:

1 - Rock 'n' Roll - 4:00
2 - Liebesspieler - 2:40
3 - Warten Auf Dich - 3:15
4 - Armee Der Verlierer - 2:40
5 - Liebeslied - 3:50
6 - Disco In Moskau - 3:05
7 - Das Wort Zum Sonntag - 4:20
8 - Police On My Back - 2:08
9 - Schwarzwaldklinik - 3:08
10 - Opel-Gang - 1:51
11 - Die Rosen Geben 'ne Party - 1:25
12 - Bis Zum Bitteren Ende - 3:40
13 - Happy Metal Part I (Adagio) - 1:16
14 - Freitag Der 13. - 3:25
15 - Happy Metal Part II (Allegro) - 0:40
16 - Betrunken Im Dienst - 2:10
17 - Happy Metal Part III (Forte Fortissimo) - 0:40
18 - Eisgekühlter Bommerlunder - 3:35

EAC-Log, CUE-Sheed & NFO:

Click to open spoiler
Exact Audio Copy V0.99 prebeta 4 from 23. January 2008

EAC Auslese-Logdatei vom 15. März 2009, 12:12

Die Toten Hosen / Bis zum bitteren Ende

Benutztes Laufwerk : HL-DT-STDVD-ROM GDR-H30N Adapter: 0 ID: 1

Lesemodus : Sicher
Benutze Accurate Stream : Ja
Audio Puffer abgeschaltet : Ja
Benutze C2 Fehlerinformationen : Nein

Leseoffset Korrektur : 6
Überlesen in das Lead-In und Lead-Out : Nein
Fülle fehlende Offsetsample mit Stille auf : Ja
Lösche führende und nachfolgende stille Blöcke : Nein
Null Samples gehen in CRC Berechnungen ein : Ja
Benutzte Schnittstelle : Installierte externe ASPI Schnittstelle

Benutztes Ausgabeformat : Interne WAV Routinen
Sampleformat : 44.100 Hz; 16 Bit; Stereo

TOC der ausgelesenen CD

Track | Start | Länge | Startsektor | Endsektor
——————————————————-
1 | 0:00.00 | 3:04.42 | 0 | 13841
2 | 3:04.42 | 2:35.73 | 13842 | 25539
3 | 5:40.40 | 3:15.37 | 25540 | 40201
4 | 8:56.02 | 2:45.18 | 40202 | 52594
5 | 11:41.20 | 3:38.45 | 52595 | 68989
6 | 15:19.65 | 3:07.12 | 68990 | 83026
7 | 18:27.02 | 4:17.10 | 83027 | 102311
8 | 22:44.12 | 2:12.68 | 102312 | 112279
9 | 24:57.05 | 3:08.07 | 112280 | 126386
10 | 28:05.12 | 2:00.68 | 126387 | 135454
11 | 30:06.05 | 1:30.35 | 135455 | 142239
12 | 31:36.40 | 4:39.67 | 142240 | 163231
13 | 36:16.32 | 8:22.10 | 163232 | 200891
14 | 44:38.42 | 3:56.25 | 200892 | 218616

Bereichsstatus und Fehler

Gewählter Bereich

Dateiname K:\Die Toten Hosen – Diskografie\Albums\1987 – Bis zum bitteren Ende\Die Toten Hosen – Bis zum bitteren Ende.wav

Spitzenpegel 97.9 %
Bereichsqualität 100.0 %
Kopie CRC 95484EDD
Kopie OK

Keine Fehler aufgetreten

AccurateRip Übersicht

Track 1 akkurat gelesen (Zuversicht 7) [1761D0B4]
Track 2 akkurat gelesen (Zuversicht 7) [EF5DCF5F]
Track 3 akkurat gelesen (Zuversicht 7) [985289FE]
Track 4 akkurat gelesen (Zuversicht 7) [A50470FF]
Track 5 akkurat gelesen (Zuversicht 7) [68850EC3]
Track 6 akkurat gelesen (Zuversicht 7) [122BFACE]
Track 7 akkurat gelesen (Zuversicht 7) [405DF8DA]
Track 8 akkurat gelesen (Zuversicht 7) [BF0D6C82]
Track 9 akkurat gelesen (Zuversicht 7) [5D4ECB0D]
Track 10 akkurat gelesen (Zuversicht 7) [1271423E]
Track 11 akkurat gelesen (Zuversicht 7) [9E3FA5DE]
Track 12 akkurat gelesen (Zuversicht 7) [FA7C94A6]
Track 13 akkurat gelesen (Zuversicht 7) [EA001595]
Track 14 akkurat gelesen (Zuversicht 6) [FF9D10CB]

Alle Tracks wurden akkurat gelesen

Ende des Statusreports

REM GENRE “Punk Rock”
REM DATE 1987
REM DISCID D50B620E
REM COMMENT “ExactAudioCopy v0.99pb4”
PERFORMER “Die Toten Hosen”
TITLE “Bis zum bitteren Ende”
FILE “Die Toten Hosen – Bis zum bitteren Ende.flac” WAVE
TRACK 01 AUDIO
TITLE “Rock ‘n’ Roll”
PERFORMER “Die Toten Hosen”
INDEX 01 00:00:00
TRACK 02 AUDIO
TITLE “Liebesspieler”
PERFORMER “Die Toten Hosen”
INDEX 01 03:04:42
TRACK 03 AUDIO
TITLE “Warten auf Dich”
PERFORMER “Die Toten Hosen”
INDEX 01 05:40:40
TRACK 04 AUDIO
TITLE “Armee der Verlierer”
PERFORMER “Die Toten Hosen”
INDEX 01 08:56:02
TRACK 05 AUDIO
TITLE “Liebeslied”
PERFORMER “Die Toten Hosen”
INDEX 01 11:41:20
TRACK 06 AUDIO
TITLE “Disco in Moskau”
PERFORMER “Die Toten Hosen”
INDEX 01 15:19:65
TRACK 07 AUDIO
TITLE “Das Wort zum Sonntag”
PERFORMER “Die Toten Hosen”
INDEX 01 18:27:02
TRACK 08 AUDIO
TITLE “Police on My Back”
PERFORMER “Die Toten Hosen”
INDEX 01 22:44:12
TRACK 09 AUDIO
TITLE “Schwarzwaldklinik”
PERFORMER “Die Toten Hosen”
INDEX 01 24:57:05
TRACK 10 AUDIO
TITLE “Opel-Gang”
PERFORMER “Die Toten Hosen”
INDEX 01 28:05:12
TRACK 11 AUDIO
TITLE “Die Rosen geben ‘ne Party”
PERFORMER “Die Toten Hosen”
INDEX 01 30:06:05
TRACK 12 AUDIO
TITLE “Bis zum bitteren Ende”
PERFORMER “Die Toten Hosen”
INDEX 01 31:36:40
TRACK 13 AUDIO
TITLE “Happy Metal Part I (Adagio) – Freitag der 13. – Happy Metal Part II (Allegro)…”
PERFORMER “Die Toten Hosen”
INDEX 01 36:16:32
TRACK 14 AUDIO
TITLE “Eisgekühlter Bommerlunder”
PERFORMER “Die Toten Hosen”
INDEX 01 44:38:42


Leave a Reply

Your email address will not be published. Required fields are marked *

This site uses Akismet to reduce spam. Learn how your comment data is processed.