Die Toten Hosen – Ballast der Republik (2CDs)




No Cover available

Artist: Die Toten Hosen
Year: 2012
Genre: Punk
Notes: Discogs
Add. Notes:
Watch Songs on: YouTube
Cover incl.: Yes
Encoder: FLAC
Bitrate: ~1000 kBit/s (44.1 kHz/16 Bit/s)
Log & Cue incl.: Yes/Yes
Size: 652,7 MB
Password: “slam” (without ” “)


All Downloads/Hosters are compatible

Download 1
KatFile.com
Turbobit.net
Rapidgator.net
FileFactory.com
Download 2
KatFile.com
Turbobit.net
Rapidgator.net
FileFactory.com

Tracklist:

Ballast Der Republik
1-1 Drei Kreuze (Dass Wir Hier Sind) 
1-2 Ballast Der Republik 
1-3 Tage Wie Diese 
1-4 Traurig Einen Sommer Lang 
1-5 Altes Fieber 
1-6 Zwei Drittel Liebe 
1-7 Europa 
1-8 Reiß Dich Los 
1-9 Drei Worte 
1-10 Schade, Wie Kann Das Passieren? 
1-11 Draußen Vor Der Tür 
1-12 Das Ist Der Moment 
1-13 Ein Guter Tag Zum Fliegen 
1-14 Oberhausen 
1-15 Alles Hat Seinen Grund 
1-16 Vogelfrei 

Die Geister Die Wir Riefen
2-1 Computerstaat 
2-2 Sirenen 
2-3 Das Model 
2-4 Die Moorsoldaten 
2-5 Im Nebel 
2-6 Heute Hier, Morgen Dort 
2-7 Rock Me Amadeus 
2-8 Industrie-Mädchen 
2-9 Keine Macht Für Niemand 
2-10 Einen Großen Nazi Hat Sie! 
2-11 Schrei Nach Liebe 
2-12 Manche Frauen 
2-13 Innenstadt Front 
2-14 Stimmen Aus Dem Massengrab 
2-15 Lasset Uns Singen

EAC-Log, CUE-Sheed & NFO:

Click to open spoiler
Exact Audio Copy V1.0 beta 3 from 29. August 2011

EAC extraction logfile from 5. May 2012, 14:02

Die Toten Hosen / Ballast Der Republik

Used drive : _NEC DVD_RW ND-2510A Adapter: 2 ID: 1

Read mode : Secure
Utilize accurate stream : Yes
Defeat audio cache : Yes
Make use of C2 pointers : No

Read offset correction : 48
Overread into Lead-In and Lead-Out : No
Fill up missing offset samples with silence : Yes
Delete leading and trailing silent blocks : No
Null samples used in CRC calculations : Yes
Used interface : Native Win32 interface for Win NT & 2000
Gap handling : Appended to previous track

Used output format : User Defined Encoder
Selected bitrate : 768 kBit/s
Quality : High
Add ID3 tag : No
Command line compressor : C:\Program Files (x86)\Exact Audio Copy\FLAC\FLAC.EXE
Additional command line options : -8 -V -T “ARTIST=%artist%” -T “TITLE=%title%” -T “ALBUM=%albumtitle%” -T “DATE=%year%” -T “TRACKNUMBER=%tracknr%” -T “GENRE=%genre%” -T “COMMENT=%comment%” -T “BAND=%albuminterpret%” -T “ALBUMARTIST=%albuminterpret%” -T “COMPOSER=%composer%” %haslyrics%–tag-from-file=LYRICS=”%lyricsfile%”%haslyrics% -T “DISCNUMBER=%cdnumber%” -T “TOTALDISCS=%totalcds%” -T “TOTALTRACKS=%numtracks%” %hascover%–picture=”%coverfile%”%hascover% %source% -o %dest%

TOC of the extracted CD

Track | Start | Length | Start sector | End sector
———————————————————
1 | 0:00.00 | 1:27.14 | 0 | 6538
2 | 1:27.14 | 2:39.29 | 6539 | 18492
3 | 4:06.43 | 4:25.10 | 18493 | 38377
4 | 8:31.53 | 3:03.53 | 38378 | 52155
5 | 11:35.31 | 3:30.55 | 52156 | 67960
6 | 15:06.11 | 3:32.28 | 67961 | 83888
7 | 18:38.39 | 2:49.02 | 83889 | 96565
8 | 21:27.41 | 2:54.34 | 96566 | 109649
9 | 24:22.00 | 3:39.74 | 109650 | 126148
10 | 28:01.74 | 3:40.15 | 126149 | 142663
11 | 31:42.14 | 3:03.58 | 142664 | 156446
12 | 34:45.72 | 3:00.65 | 156447 | 170011
13 | 37:46.62 | 3:31.72 | 170012 | 185908
14 | 41:18.59 | 4:17.33 | 185909 | 205216
15 | 45:36.17 | 3:38.74 | 205217 | 221640
16 | 49:15.16 | 3:37.03 | 221641 | 237918

Track 1

Filename C:\music\Die Toten Hosen – 2012 Ballast der Republik\01 Die Toten Hosen – Drei Kreuze (dass wir hier sind).wav

Pre-gap length 0:00:02.00

Peak level 90.6 %
Extraction speed 2.9 X
Track quality 100.0 %
Test CRC 82110500
Copy CRC 82110500
Track not present in AccurateRip database
Copy OK

Track 2

Filename C:\music\Die Toten Hosen – 2012 Ballast der Republik\02 Die Toten Hosen – Ballast der Republik.wav

Peak level 99.6 %
Extraction speed 2.8 X
Track quality 99.9 %
Test CRC AF14448C
Copy CRC AF14448C
Track not present in AccurateRip database
Copy OK

Track 3

Filename C:\music\Die Toten Hosen – 2012 Ballast der Republik\03 Die Toten Hosen – Tage wie diese.wav

Peak level 98.8 %
Extraction speed 3.5 X
Track quality 99.9 %
Test CRC 8A8C17C9
Copy CRC 8A8C17C9
Track not present in AccurateRip database
Copy OK

Track 4

Filename C:\music\Die Toten Hosen – 2012 Ballast der Republik\04 Die Toten Hosen – Traurig einen Sommer lang.wav

Peak level 98.8 %
Extraction speed 3.5 X
Track quality 99.9 %
Test CRC 577900D2
Copy CRC 577900D2
Track not present in AccurateRip database
Copy OK

Track 5

Filename C:\music\Die Toten Hosen – 2012 Ballast der Republik\05 Die Toten Hosen – Altes Fieber.wav

Peak level 99.1 %
Extraction speed 4.6 X
Track quality 100.0 %
Test CRC 3230D733
Copy CRC 3230D733
Track not present in AccurateRip database
Copy OK

Track 6

Filename C:\music\Die Toten Hosen – 2012 Ballast der Republik\06 Die Toten Hosen – Zwei Drittel Liebe.wav

Peak level 98.8 %
Extraction speed 4.9 X
Track quality 100.0 %
Test CRC 2FF263BA
Copy CRC 2FF263BA
Track not present in AccurateRip database
Copy OK

Track 7

Filename C:\music\Die Toten Hosen – 2012 Ballast der Republik\07 Die Toten Hosen – Europa.wav

Peak level 98.8 %
Extraction speed 5.0 X
Track quality 100.0 %
Test CRC 1B59F4D1
Copy CRC 1B59F4D1
Track not present in AccurateRip database
Copy OK

Track 8

Filename C:\music\Die Toten Hosen – 2012 Ballast der Republik\08 Die Toten Hosen – Reiß dich los.wav

Peak level 98.8 %
Extraction speed 5.3 X
Track quality 100.0 %
Test CRC 8A908AB3
Copy CRC 8A908AB3
Track not present in AccurateRip database
Copy OK

Track 9

Filename C:\music\Die Toten Hosen – 2012 Ballast der Republik\09 Die Toten Hosen – Drei Worte.wav

Peak level 98.8 %
Extraction speed 5.7 X
Track quality 100.0 %
Test CRC 0E8E7433
Copy CRC 0E8E7433
Track not present in AccurateRip database
Copy OK

Track 10

Filename C:\music\Die Toten Hosen – 2012 Ballast der Republik\10 Die Toten Hosen – Schade, wie kann das passieren.wav

Peak level 98.8 %
Extraction speed 5.9 X
Track quality 100.0 %
Test CRC 6306E3BF
Copy CRC 6306E3BF
Track not present in AccurateRip database
Copy OK

Track 11

Filename C:\music\Die Toten Hosen – 2012 Ballast der Republik\11 Die Toten Hosen – Draußen vor der Tür.wav

Peak level 98.2 %
Extraction speed 5.9 X
Track quality 100.0 %
Test CRC BBAD560E
Copy CRC BBAD560E
Track not present in AccurateRip database
Copy OK

Track 12

Filename C:\music\Die Toten Hosen – 2012 Ballast der Republik\12 Die Toten Hosen – Das ist der Moment.wav

Peak level 98.8 %
Extraction speed 6.0 X
Track quality 100.0 %
Test CRC 6BDC939B
Copy CRC 6BDC939B
Track not present in AccurateRip database
Copy OK

Track 13

Filename C:\music\Die Toten Hosen – 2012 Ballast der Republik\13 Die Toten Hosen – Ein guter Tag zum Fliegen.wav

Peak level 98.8 %
Extraction speed 6.4 X
Track quality 100.0 %
Test CRC 7761B951
Copy CRC 7761B951
Track not present in AccurateRip database
Copy OK

Track 14

Filename C:\music\Die Toten Hosen – 2012 Ballast der Republik\14 Die Toten Hosen – Oberhausen.wav

Peak level 98.5 %
Extraction speed 5.6 X
Track quality 99.9 %
Test CRC 3BA14F8A
Copy CRC 3BA14F8A
Track not present in AccurateRip database
Copy OK

Track 15

Filename C:\music\Die Toten Hosen – 2012 Ballast der Republik\15 Die Toten Hosen – Alles hat seinen Grund.wav

Peak level 98.8 %
Extraction speed 6.8 X
Track quality 100.0 %
Test CRC E8FDCA3B
Copy CRC E8FDCA3B
Track not present in AccurateRip database
Copy OK

Track 16

Filename C:\music\Die Toten Hosen – 2012 Ballast der Republik\16 Die Toten Hosen – Vogelfrei.wav

Peak level 98.9 %
Extraction speed 6.9 X
Track quality 100.0 %
Test CRC BFCA299A
Copy CRC BFCA299A
Track not present in AccurateRip database
Copy OK

None of the tracks are present in the AccurateRip database

No errors occurred

End of status report

—- CUETools DB Plugin V2.1.3

[CTDB TOCID: C8I1tKKSaVy7UUFGwQeAcqB6R0E-] found, Submit result: C8I1tKKSaVy7UUFGwQeAcqB6R0E- has been confirmed
[a766f755] (21/22) Accurately ripped
[8bf340dc] (01/22) No match

==== Log checksum 2F94EA690B4B9CAD8281E1D89B454A585FBCAD082FB235CD309407AEAC0A4FBA ====

Exact Audio Copy V1.0 beta 3 from 29. August 2011

EAC extraction logfile from 5. May 2012, 14:24

Die Toten Hosen / Die Geister, Die Wir Riefen

Used drive : _NEC DVD_RW ND-2510A Adapter: 2 ID: 1

Read mode : Secure
Utilize accurate stream : Yes
Defeat audio cache : Yes
Make use of C2 pointers : No

Read offset correction : 48
Overread into Lead-In and Lead-Out : No
Fill up missing offset samples with silence : Yes
Delete leading and trailing silent blocks : No
Null samples used in CRC calculations : Yes
Used interface : Native Win32 interface for Win NT & 2000
Gap handling : Appended to previous track

Used output format : User Defined Encoder
Selected bitrate : 768 kBit/s
Quality : High
Add ID3 tag : No
Command line compressor : C:\Program Files (x86)\Exact Audio Copy\FLAC\FLAC.EXE
Additional command line options : -8 -V -T “ARTIST=%artist%” -T “TITLE=%title%” -T “ALBUM=%albumtitle%” -T “DATE=%year%” -T “TRACKNUMBER=%tracknr%” -T “GENRE=%genre%” -T “COMMENT=%comment%” -T “BAND=%albuminterpret%” -T “ALBUMARTIST=%albuminterpret%” -T “COMPOSER=%composer%” %haslyrics%–tag-from-file=LYRICS=”%lyricsfile%”%haslyrics% -T “DISCNUMBER=%cdnumber%” -T “TOTALDISCS=%totalcds%” -T “TOTALTRACKS=%numtracks%” %hascover%–picture=”%coverfile%”%hascover% %source% -o %dest%

TOC of the extracted CD

Track | Start | Length | Start sector | End sector
———————————————————
1 | 0:00.00 | 2:38.54 | 0 | 11903
2 | 2:38.54 | 1:53.13 | 11904 | 20391
3 | 4:31.67 | 2:27.71 | 20392 | 31487
4 | 6:59.63 | 3:17.34 | 31488 | 46296
5 | 10:17.22 | 2:41.50 | 46297 | 58421
6 | 12:58.72 | 2:15.48 | 58422 | 68594
7 | 15:14.45 | 2:41.21 | 68595 | 80690
8 | 17:55.66 | 1:54.37 | 80691 | 89277
9 | 19:50.28 | 2:34.04 | 89278 | 100831
10 | 22:24.32 | 2:14.35 | 100832 | 110916
11 | 24:38.67 | 3:24.01 | 110917 | 126217
12 | 28:02.68 | 2:49.05 | 126218 | 138897
13 | 30:51.73 | 1:05.11 | 138898 | 143783
14 | 31:57.09 | 2:17.46 | 143784 | 154104
15 | 34:14.55 | 3:33.22 | 154105 | 170101

Track 1

Filename C:\music\Die Toten Hosen – 2012 Die Geister, die wir riefen\01 Die Toten Hosen – Computerstaat.wav

Pre-gap length 0:00:02.00

Peak level 98.9 %
Extraction speed 2.7 X
Track quality 99.9 %
Test CRC E53A6921
Copy CRC E53A6921
Track not present in AccurateRip database
Copy OK

Track 2

Filename C:\music\Die Toten Hosen – 2012 Die Geister, die wir riefen\02 Die Toten Hosen – Sirenen.wav

Peak level 98.9 %
Extraction speed 3.4 X
Track quality 100.0 %
Test CRC 88CF5B22
Copy CRC 88CF5B22
Track not present in AccurateRip database
Copy OK

Track 3

Filename C:\music\Die Toten Hosen – 2012 Die Geister, die wir riefen\03 Die Toten Hosen – Das Model.wav

Peak level 98.9 %
Extraction speed 3.8 X
Track quality 100.0 %
Test CRC 0C6189F5
Copy CRC 0C6189F5
Track not present in AccurateRip database
Copy OK

Track 4

Filename C:\music\Die Toten Hosen – 2012 Die Geister, die wir riefen\04 Die Toten Hosen – Die Moorsoldaten.wav

Peak level 98.9 %
Extraction speed 4.3 X
Track quality 100.0 %
Test CRC 317C3538
Copy CRC 317C3538
Track not present in AccurateRip database
Copy OK

Track 5

Filename C:\music\Die Toten Hosen – 2012 Die Geister, die wir riefen\05 Die Toten Hosen – Im Nebel.wav

Peak level 97.6 %
Extraction speed 3.4 X
Track quality 99.9 %
Test CRC 1038738C
Copy CRC 1038738C
Track not present in AccurateRip database
Copy OK

Track 6

Filename C:\music\Die Toten Hosen – 2012 Die Geister, die wir riefen\06 Die Toten Hosen – Heute hier, morgen dort.wav

Peak level 98.9 %
Extraction speed 4.5 X
Track quality 100.0 %
Test CRC B8DBFB85
Copy CRC B8DBFB85
Track not present in AccurateRip database
Copy OK

Track 7

Filename C:\music\Die Toten Hosen – 2012 Die Geister, die wir riefen\07 Die Toten Hosen – Rock Me Amadeus.wav

Peak level 98.9 %
Extraction speed 4.8 X
Track quality 100.0 %
Test CRC DF48088E
Copy CRC DF48088E
Track not present in AccurateRip database
Copy OK

Track 8

Filename C:\music\Die Toten Hosen – 2012 Die Geister, die wir riefen\08 Die Toten Hosen – Industrie-Mädchen.wav

Peak level 98.9 %
Extraction speed 3.3 X
Track quality 99.9 %
Test CRC 647A7299
Copy CRC 647A7299
Track not present in AccurateRip database
Copy OK

Track 9

Filename C:\music\Die Toten Hosen – 2012 Die Geister, die wir riefen\09 Die Toten Hosen – Keine Macht für niemand.wav

Peak level 98.9 %
Extraction speed 3.8 X
Track quality 99.9 %
Test CRC 3611D74B
Copy CRC 3611D74B
Track not present in AccurateRip database
Copy OK

Track 10

Filename C:\music\Die Toten Hosen – 2012 Die Geister, die wir riefen\10 Die Toten Hosen – Einen großen Nazi hat sie!.wav

Peak level 98.9 %
Extraction speed 3.7 X
Track quality 99.9 %
Test CRC 2D06D29A
Copy CRC 2D06D29A
Track not present in AccurateRip database
Copy OK

Track 11

Filename C:\music\Die Toten Hosen – 2012 Die Geister, die wir riefen\11 Die Toten Hosen – Schrei nach Liebe.wav

Peak level 96.7 %
Extraction speed 5.5 X
Track quality 100.0 %
Test CRC 1A1EAF1D
Copy CRC 1A1EAF1D
Track not present in AccurateRip database
Copy OK

Track 12

Filename C:\music\Die Toten Hosen – 2012 Die Geister, die wir riefen\12 Die Toten Hosen – Manche Frauen.wav

Peak level 98.9 %
Extraction speed 5.6 X
Track quality 100.0 %
Test CRC 6E8308CA
Copy CRC 6E8308CA
Track not present in AccurateRip database
Copy OK

Track 13

Filename C:\music\Die Toten Hosen – 2012 Die Geister, die wir riefen\13 Die Toten Hosen – Innenstadt Front.wav

Peak level 98.9 %
Extraction speed 4.4 X
Track quality 100.0 %
Test CRC 5AC83271
Copy CRC 5AC83271
Track not present in AccurateRip database
Copy OK

Track 14

Filename C:\music\Die Toten Hosen – 2012 Die Geister, die wir riefen\14 Die Toten Hosen – Stimmen aus dem Massengrab.wav

Peak level 98.9 %
Extraction speed 5.5 X
Track quality 100.0 %
Test CRC CE00EC35
Copy CRC CE00EC35
Track not present in AccurateRip database
Copy OK

Track 15

Filename C:\music\Die Toten Hosen – 2012 Die Geister, die wir riefen\15 Die Toten Hosen – Lasset uns singen.wav

Peak level 98.9 %
Extraction speed 6.1 X
Track quality 100.0 %
Test CRC E0AF2BC7
Copy CRC E0AF2BC7
Track not present in AccurateRip database
Copy OK

None of the tracks are present in the AccurateRip database

No errors occurred

End of status report

—- CUETools DB Plugin V2.1.3

[CTDB TOCID: QVaXsv6PzHH2hHVbdmIZVkidxEc-] found, Submit result: QVaXsv6PzHH2hHVbdmIZVkidxEc- has been confirmed
[b28f01a4] (19/19) Accurately ripped

==== Log checksum 409269018892476929152C70EEC84E368D5797AA114A22C0EE6B986F25823B70 ====

CD 1:
REM DISCID F40C6410
REM COMMENT “ExactAudioCopy v1.0b3”
PERFORMER “Die Toten Hosen”
TITLE “Ballast Der Republik”
FILE “01. Die Toten Hosen – Drei Kreuze (dass wir hier sind).flac” WAVE
TRACK 01 AUDIO
TITLE “Drei Kreuze (dass wir hier sind)”
PERFORMER “Die Toten Hosen”
ISRC DEF241230005
INDEX 01 00:00:00
FILE “02. Die Toten Hosen – Ballast der Republik.flac” WAVE
TRACK 02 AUDIO
TITLE “Ballast der Republik”
PERFORMER “Die Toten Hosen”
ISRC DEF241230006
INDEX 01 00:00:00
FILE “03. Die Toten Hosen – Tage wie diese.flac” WAVE
TRACK 03 AUDIO
TITLE “Tage wie diese”
PERFORMER “Die Toten Hosen”
ISRC DEF241230001
INDEX 01 00:00:00
FILE “04. Die Toten Hosen – Traurig einen Sommer lang.flac” WAVE
TRACK 04 AUDIO
TITLE “Traurig einen Sommer lang”
PERFORMER “Die Toten Hosen”
ISRC DEF241230007
INDEX 01 00:00:00
FILE “05. Die Toten Hosen – Altes Fieber.flac” WAVE
TRACK 05 AUDIO
TITLE “Altes Fieber”
PERFORMER “Die Toten Hosen”
ISRC DEF241230008
INDEX 01 00:00:00
FILE “06. Die Toten Hosen – Zwei Drittel Liebe.flac” WAVE
TRACK 06 AUDIO
TITLE “Zwei Drittel Liebe”
PERFORMER “Die Toten Hosen”
ISRC DEF241230009
INDEX 01 00:00:00
FILE “07. Die Toten Hosen – Europa.flac” WAVE
TRACK 07 AUDIO
TITLE “Europa”
PERFORMER “Die Toten Hosen”
ISRC DEF241230010
INDEX 01 00:00:00
FILE “08. Die Toten Hosen – Reiß dich los.flac” WAVE
TRACK 08 AUDIO
TITLE “Reiß dich los”
PERFORMER “Die Toten Hosen”
ISRC DEF241230011
INDEX 01 00:00:00
FILE “09. Die Toten Hosen – Drei Worte.flac” WAVE
TRACK 09 AUDIO
TITLE “Drei Worte”
PERFORMER “Die Toten Hosen”
ISRC DEF241230012
INDEX 01 00:00:00
FILE “10. Die Toten Hosen – Schade, wie kann das passieren.flac” WAVE
TRACK 10 AUDIO
TITLE “Schade, wie kann das passieren?”
PERFORMER “Die Toten Hosen”
ISRC DEF241230013
INDEX 01 00:00:00
FILE “11. Die Toten Hosen – Draußen vor der Tür.flac” WAVE
TRACK 11 AUDIO
TITLE “Draußen vor der Tür”
PERFORMER “Die Toten Hosen”
ISRC DEF241230014
INDEX 01 00:00:00
FILE “12. Die Toten Hosen – Das ist der Moment.flac” WAVE
TRACK 12 AUDIO
TITLE “Das ist der Moment”
PERFORMER “Die Toten Hosen”
ISRC DEF241230015
INDEX 01 00:00:00
FILE “13. Die Toten Hosen – Ein guter Tag zum Fliegen.flac” WAVE
TRACK 13 AUDIO
TITLE “Ein guter Tag zum Fliegen”
PERFORMER “Die Toten Hosen”
ISRC DEF241230016
INDEX 01 00:00:00
FILE “14. Die Toten Hosen – Oberhausen.flac” WAVE
TRACK 14 AUDIO
TITLE “Oberhausen”
PERFORMER “Die Toten Hosen”
ISRC DEF241230017
INDEX 01 00:00:00
FILE “15. Die Toten Hosen – Alles hat seinen Grund.flac” WAVE
TRACK 15 AUDIO
TITLE “Alles hat seinen Grund”
PERFORMER “Die Toten Hosen”
ISRC DEF241230018
INDEX 01 00:00:00
FILE “16. Die Toten Hosen – Vogelfrei.flac” WAVE
TRACK 16 AUDIO
TITLE “Vogelfrei”
PERFORMER “Die Toten Hosen”
ISRC DEF241230019
INDEX 01 00:00:00

CD 2:
REM DISCID C708DC0F
REM COMMENT “ExactAudioCopy v1.0b3”
PERFORMER “Die Toten Hosen”
TITLE “Die Geister, Die Wir Riefen”
FILE “01. Die Toten Hosen – Computerstaat.flac” WAVE
TRACK 01 AUDIO
TITLE “Computerstaat”
PERFORMER “Die Toten Hosen”
ISRC DEF241230021
INDEX 01 00:00:00
FILE “02. Die Toten Hosen – Sirenen.flac” WAVE
TRACK 02 AUDIO
TITLE “Sirenen”
PERFORMER “Die Toten Hosen”
ISRC DEF241230022
INDEX 01 00:00:00
FILE “03. Die Toten Hosen – Das Model.flac” WAVE
TRACK 03 AUDIO
TITLE “Das Model”
PERFORMER “Die Toten Hosen”
ISRC DEF241230023
INDEX 01 00:00:00
FILE “04. Die Toten Hosen – Die Moorsoldaten.flac” WAVE
TRACK 04 AUDIO
TITLE “Die Moorsoldaten”
PERFORMER “Die Toten Hosen”
ISRC DEF241230024
INDEX 01 00:00:00
FILE “05. Die Toten Hosen – Im Nebel.flac” WAVE
TRACK 05 AUDIO
TITLE “Im Nebel”
PERFORMER “Die Toten Hosen”
ISRC DEF241230025
INDEX 01 00:00:00
FILE “06. Die Toten Hosen – Heute hier, morgen dort.flac” WAVE
TRACK 06 AUDIO
TITLE “Heute hier, morgen dort”
PERFORMER “Die Toten Hosen”
ISRC DEF241230026
INDEX 01 00:00:00
FILE “07. Die Toten Hosen – Rock Me Amadeus.flac” WAVE
TRACK 07 AUDIO
TITLE “Rock Me Amadeus”
PERFORMER “Die Toten Hosen”
ISRC DEF241230027
INDEX 01 00:00:00
FILE “08. Die Toten Hosen – Industrie-Mädchen.flac” WAVE
TRACK 08 AUDIO
TITLE “Industrie-Mädchen”
PERFORMER “Die Toten Hosen”
ISRC DEF241230028
INDEX 01 00:00:00
FILE “09. Die Toten Hosen – Keine Macht für niemand.flac” WAVE
TRACK 09 AUDIO
TITLE “Keine Macht für niemand”
PERFORMER “Die Toten Hosen”
ISRC DEF241230029
INDEX 01 00:00:00
FILE “10. Die Toten Hosen – Einen großen Nazi hat sie!.flac” WAVE
TRACK 10 AUDIO
TITLE “Einen großen Nazi hat sie!”
PERFORMER “Die Toten Hosen”
ISRC DEF241230030
INDEX 01 00:00:00
FILE “11. Die Toten Hosen – Schrei nach Liebe.flac” WAVE
TRACK 11 AUDIO
TITLE “Schrei nach Liebe”
PERFORMER “Die Toten Hosen”
ISRC DEF241230031
INDEX 01 00:00:00
FILE “12. Die Toten Hosen – Manche Frauen.flac” WAVE
TRACK 12 AUDIO
TITLE “Manche Frauen”
PERFORMER “Die Toten Hosen”
ISRC DEF241230032
INDEX 01 00:00:00
FILE “13. Die Toten Hosen – Innenstadt Front.flac” WAVE
TRACK 13 AUDIO
TITLE “Innenstadt Front”
PERFORMER “Die Toten Hosen”
ISRC DEF241230033
INDEX 01 00:00:00
FILE “14. Die Toten Hosen – Stimmen aus dem Massengrab.flac” WAVE
TRACK 14 AUDIO
TITLE “Stimmen aus dem Massengrab”
PERFORMER “Die Toten Hosen”
ISRC DEF241230034
INDEX 01 00:00:00
FILE “15 Die Toten Hosen – Lasset uns singen.flac” WAVE
TRACK 15 AUDIO
TITLE “Lasset uns singen”
PERFORMER “Die Toten Hosen”
ISRC DEF241230035
INDEX 01 00:00:00


Leave a Reply

Your email address will not be published. Required fields are marked *

This site uses Akismet to reduce spam. Learn how your comment data is processed.