Die Toten Hosen – Auswärtsspiel




[Total: 0    Average: 0/5]

Artist: Die Toten Hosen
Year: 2002
Genre: Punk
Notes: Discogs
Add. Notes:
Cover incl.: Yes
Encoder: FLAC
Bitrate: ~1100 kBit/s (44.1 kHz/16 Bit/s)
Log & Cue incl.: Yes
Size: 659,01 MB
Password: “slam” (without ” “)


All Downloads/Hosters are compatible

Download 1
Share-online.biz
KatFile.com
Rapidgator.net
Download 2
Share-online.biz
KatFile.com
Rapidgator.net

Tracklist:

1 - Du Lebst Nur Einmal (Vorher) - 2:09
2 - Schlampe (Nachher) - 3:01
3 - Was Zählt - 4:37
4 - Auswärtsspiel - 2:35
5 - Cokane In My Brain - 3:22
6 - Graue Panther - 2:52
7 - Tier - 1:15
8 - Kanzler Sein... - 3:26
9 - Das Mädchen Aus Rottweil - 3:18
10 - Dankbar - 2:54
11 - Nur Zu Besuch - 4:29
12 - Daydreaming - 3:10
13 - Steh Auf, Wenn Du Am Boden Bist - 3:52
14 - Amanita Phalloides - 2:26
15 - Depression Deluxe - 3:08
16 - Schwimmen - 3:33
17 - Venceremos - Wir Werden Siegen - 3:26
18 - Kein Alkohol (Ist Auch Keine Lösung)! - 3:51

EAC-Log, CUE-Sheed & NFO:

Click to open spoiler
Exact Audio Copy V0.99 prebeta 4 from 23. January 2008

EAC Auslese-Logdatei vom 15. März 2009, 15:56

Die Toten Hosen / Auswärtsspiel

Benutztes Laufwerk : HL-DT-STDVD-ROM GDR-H30N Adapter: 0 ID: 1

Lesemodus : Sicher
Benutze Accurate Stream : Ja
Audio Puffer abgeschaltet : Ja
Benutze C2 Fehlerinformationen : Nein

Leseoffset Korrektur : 6
Überlesen in das Lead-In und Lead-Out : Nein
Fülle fehlende Offsetsample mit Stille auf : Ja
Lösche führende und nachfolgende stille Blöcke : Nein
Null Samples gehen in CRC Berechnungen ein : Ja
Benutzte Schnittstelle : Installierte externe ASPI Schnittstelle

Benutztes Ausgabeformat : Interne WAV Routinen
Sampleformat : 44.100 Hz; 16 Bit; Stereo

TOC der ausgelesenen CD

Track | Start | Länge | Startsektor | Endsektor
——————————————————-
1 | 0:00.00 | 2:09.45 | 0 | 9719
2 | 2:09.45 | 3:01.01 | 9720 | 23295
3 | 5:10.46 | 4:37.69 | 23296 | 44139
4 | 9:48.40 | 2:35.42 | 44140 | 55806
5 | 12:24.07 | 3:22.29 | 55807 | 70985
6 | 15:46.36 | 2:52.70 | 70986 | 83955
7 | 18:39.31 | 1:15.16 | 83956 | 89596
8 | 19:54.47 | 3:26.57 | 89597 | 105103
9 | 23:21.29 | 3:18.41 | 105104 | 119994
10 | 26:39.70 | 2:54.15 | 119995 | 133059
11 | 29:34.10 | 4:29.65 | 133060 | 153299
12 | 34:04.00 | 3:10.48 | 153300 | 167597
13 | 37:14.48 | 3:52.01 | 167598 | 184998
14 | 41:06.49 | 2:26.73 | 184999 | 196021
15 | 43:33.47 | 3:08.34 | 196022 | 210155
16 | 46:42.06 | 3:33.72 | 210156 | 226202
17 | 50:16.03 | 3:26.00 | 226203 | 241652
18 | 53:42.03 | 3:51.09 | 241653 | 258986

Bereichsstatus und Fehler

Gewählter Bereich

Dateiname K:\Die Toten Hosen – Diskografie\Albums\2002 – Auswaertsspiel\Die Toten Hosen – Auswärtsspiel.wav

Spitzenpegel 100.0 %
Bereichsqualität 100.0 %
Kopie CRC 03A283DF
Kopie OK

Keine Fehler aufgetreten

AccurateRip Übersicht

Track 1 akkurat gelesen (Zuversicht 39) [FA8214F1]
Track 2 akkurat gelesen (Zuversicht 41) [92CAB11D]
Track 3 akkurat gelesen (Zuversicht 41) [58418241]
Track 4 akkurat gelesen (Zuversicht 41) [A9D083DC]
Track 5 akkurat gelesen (Zuversicht 41) [75607521]
Track 6 akkurat gelesen (Zuversicht 40) [04369A85]
Track 7 akkurat gelesen (Zuversicht 40) [86E2D70A]
Track 8 akkurat gelesen (Zuversicht 40) [A18D2BEE]
Track 9 akkurat gelesen (Zuversicht 40) [C8753F11]
Track 10 akkurat gelesen (Zuversicht 41) [BC341D8A]
Track 11 akkurat gelesen (Zuversicht 42) [25BB523A]
Track 12 akkurat gelesen (Zuversicht 41) [FE4385ED]
Track 13 akkurat gelesen (Zuversicht 39) [581DE925]
Track 14 akkurat gelesen (Zuversicht 40) [C70A3546]
Track 15 akkurat gelesen (Zuversicht 40) [85CF3FCD]
Track 16 akkurat gelesen (Zuversicht 40) [B3A68E4B]
Track 17 akkurat gelesen (Zuversicht 41) [2E11F58B]
Track 18 akkurat gelesen (Zuversicht 40) [5D5AA816]

Alle Tracks wurden akkurat gelesen

Ende des Statusreports

REM GENRE “Punk Rock”
REM DATE 2002
REM DISCID DC0D7D12
REM COMMENT “ExactAudioCopy v0.99pb4”
PERFORMER “Die Toten Hosen”
TITLE “Auswärtsspiel”
FILE “Die Toten Hosen – Auswärtsspiel.wav” WAVE
TRACK 01 AUDIO
TITLE “Du lebst nur einmal (vorher)”
PERFORMER “Die Toten Hosen”
INDEX 01 00:00:00
TRACK 02 AUDIO
TITLE “Schlampe (nachher)”
PERFORMER “Die Toten Hosen”
INDEX 00 02:09:25
INDEX 01 02:09:45
TRACK 03 AUDIO
TITLE “Was zählt”
PERFORMER “Die Toten Hosen”
INDEX 00 05:10:26
INDEX 01 05:10:46
TRACK 04 AUDIO
TITLE “Auswärtsspiel”
PERFORMER “Die Toten Hosen”
INDEX 00 09:48:19
INDEX 01 09:48:40
TRACK 05 AUDIO
TITLE “Cokane in my brain”
PERFORMER “Die Toten Hosen”
INDEX 00 12:23:61
INDEX 01 12:24:07
TRACK 06 AUDIO
TITLE “Graue Panther”
PERFORMER “Die Toten Hosen”
INDEX 00 15:46:15
INDEX 01 15:46:36
TRACK 07 AUDIO
TITLE “Tier”
PERFORMER “Die Toten Hosen”
INDEX 00 18:39:10
INDEX 01 18:39:31
TRACK 08 AUDIO
TITLE “Kanzler sein…”
PERFORMER “Die Toten Hosen”
INDEX 00 19:54:27
INDEX 01 19:54:47
TRACK 09 AUDIO
TITLE “Das Mädchen aus Rottweil”
PERFORMER “Die Toten Hosen”
INDEX 00 23:21:08
INDEX 01 23:21:29
TRACK 10 AUDIO
TITLE “Dankbar”
PERFORMER “Die Toten Hosen”
INDEX 00 26:39:50
INDEX 01 26:39:70
TRACK 11 AUDIO
TITLE “Nur zu Besuch”
PERFORMER “Die Toten Hosen”
INDEX 00 29:33:65
INDEX 01 29:34:10
TRACK 12 AUDIO
TITLE “Daydreaming”
PERFORMER “Die Toten Hosen”
INDEX 00 34:03:55
INDEX 01 34:04:00
TRACK 13 AUDIO
TITLE “Steh auf, wenn Du am Boden bist”
PERFORMER “Die Toten Hosen”
INDEX 00 37:14:27
INDEX 01 37:14:48
TRACK 14 AUDIO
TITLE “Amanita Phalloides”
PERFORMER “Die Toten Hosen”
INDEX 00 41:06:29
INDEX 01 41:06:49
TRACK 15 AUDIO
TITLE “Depression deluxe”
PERFORMER “Die Toten Hosen”
INDEX 00 43:33:27
INDEX 01 43:33:47
TRACK 16 AUDIO
TITLE “Schwimmen”
PERFORMER “Die Toten Hosen”
INDEX 00 46:41:61
INDEX 01 46:42:06
TRACK 17 AUDIO
TITLE “Venceremos – Wir werden siegen”
PERFORMER “Die Toten Hosen”
INDEX 00 50:15:58
INDEX 01 50:16:03
TRACK 18 AUDIO
TITLE “Kein Alkohol (ist auch keine Lösung)”
PERFORMER “Die Toten Hosen”
INDEX 00 53:41:57
INDEX 01 53:42:03


Spread the Download

Leave a Reply

Your email address will not be published. Required fields are marked *

Enter the text from the image below
 

This site uses Akismet to reduce spam. Learn how your comment data is processed.