Die Toten Hosen – Auswärtsspiel (Remastered)




No Cover available

Artist: Die Toten Hosen
Year: 2002/2007
Genre: Punk
Notes: Discogs
Add. Notes: Remastered
Watch Songs on: YouTube
Cover incl.: Yes
Encoder: FLAC
Bitrate: ~1000 kBit/s (44.1 kHz/16 Bit/s)
Log & Cue incl.: Yes
Size: 594,2 MB
Password: “slam” (without ” “)


All Downloads/Hosters are compatible

Download 1
KatFile.com
Turbobit.net
Rapidgator.net
FileFactory.com
Download 2
KatFile.com
Turbobit.net
Rapidgator.net
FileFactory.com

Tracklist:

1 - Du Lebst Nur Einmal (Vorher) - 2:09
2 - Schlampe (Nachher) - 3:01
3 - Was Zählt - 4:37
4 - Auswärtsspiel - 2:35
5 - Cokane In My Brain - 3:22
6 - Graue Panther - 2:52
7 - Tier - 1:15
8 - Kanzler Sein... - 3:26
9 - Das Mädchen Aus Rottweil - 3:18
10 - Dankbar - 2:54
11 - Nur Zu Besuch - 4:29
12 - Daydreaming - 3:10
13 - Steh Auf, Wenn Du Am Boden 
Bist - 3:52
14 - Amanita Phalloides - 2:26
15 - Depression Deluxe - 3:08
16 - Schwimmen - 3:33
17 - Venceremos - Wir Werden 
Siegen - 3:26
18 - Kein Alkohol (Ist Auch Keine 
Lösung)! - 3:51
Verlängerung
19 - Drüber Reden ("Was Zählt", 
Single, 2001) - 
20 - Schöner Warten ("Was Zählt", 
Single, 2001) - 
21 - Im Meer ("Kein Alkohol (Ist Auch 
Keine Lösung)", 
Single, 2002) - 
22 - Leben Im Bildausschnitt ("Steh 
Auf, Wenn Du Am 
Boden Bist", Single, 2002) - 
23 - Hirnfick (Futter Für Die Fische) 
("Nur Zu Besuch", 
Single, 2002) - 
24 - Das Leben Ist Schwer, Wenn 
Man Dumm Ist ("Zurück 
Zum Glück", Demos, 2004)

EAC-Log, CUE-Sheed & NFO:

Click to open spoiler
Exact Audio Copy V0.99 prebeta 3 from 28. July 2007

EAC Auslese-Logdatei vom 10. November 2008, 15:03

Die Toten Hosen / Auswärtsspiel + Verlängerung (REMASTERED)

Benutztes Laufwerk : HL-DT-STDVD-ROM GDR-H30N Adapter: 0 ID: 1

Lesemodus : Sicher
Benutze Accurate Stream : Ja
Audio Puffer abgeschaltet : Ja
Benutze C2 Fehlerinformationen : Nein

Leseoffset Korrektur : 6
Überlesen in das Lead-In und Lead-Out : Nein
Fülle fehlende Offsetsample mit Stille auf : Ja
Lösche führende und nachfolgende stille Blöcke : Nein
Null Samples gehen in CRC Berechnungen ein : Ja
Benutzte Schnittstelle : Installierte externe ASPI Schnittstelle

Benutztes Ausgabeformat : Interne WAV Routinen
Sampleformat : 44.100 Hz; 16 Bit; Stereo

TOC der ausgelesenen CD

Track | Start | Länge | Startsektor | Endsektor
——————————————————-
1 | 0:00.00 | 2:09.70 | 0 | 9744
2 | 2:09.70 | 3:01.29 | 9745 | 23348
3 | 5:11.24 | 4:38.35 | 23349 | 44233
4 | 9:49.59 | 2:35.71 | 44234 | 55929
5 | 12:25.55 | 3:22.52 | 55930 | 71131
6 | 15:48.32 | 2:53.13 | 71132 | 84119
7 | 18:41.45 | 1:15.12 | 84120 | 89756
8 | 19:56.57 | 3:27.23 | 89757 | 105304
9 | 23:24.05 | 3:18.51 | 105305 | 120205
10 | 26:42.56 | 2:54.33 | 120206 | 133288
11 | 29:37.14 | 4:30.20 | 133289 | 153558
12 | 34:07.34 | 3:10.71 | 153559 | 167879
13 | 37:18.30 | 3:52.51 | 167880 | 185330
14 | 41:11.06 | 2:27.26 | 185331 | 196381
15 | 43:38.32 | 3:08.58 | 196382 | 210539
16 | 46:47.15 | 3:34.21 | 210540 | 226610
17 | 50:21.36 | 3:26.23 | 226611 | 242083
18 | 53:47.59 | 3:50.20 | 242084 | 259353
19 | 57:38.04 | 1:42.20 | 259354 | 267023
20 | 59:20.24 | 3:58.60 | 267024 | 284933
21 | 63:19.09 | 3:42.47 | 284934 | 301630
22 | 67:01.56 | 3:05.44 | 301631 | 315549
23 | 70:07.25 | 3:17.32 | 315550 | 330356
24 | 73:24.57 | 3:39.73 | 330357 | 346854

Bereichsstatus und Fehler

Gewählter Bereich

Dateiname K:\Die Toten Hosen – Diskografie\Albums\2007 – Die DTH-Jubilaeumsedition (17 CD)\17 – Auswaertsspiel\Die Toten Hosen – Auswärtsspiel + Verlängerung (REMASTERED).wav

Spitzenpegel 100.0 %
Bereichsqualität 100.0 %
Kopie CRC 583361C6
Kopie OK

Keine Fehler aufgetreten

AccurateRip Übersicht

Track 1 nicht in Datenbank enthalten
Track 2 nicht in Datenbank enthalten
Track 3 nicht in Datenbank enthalten
Track 4 nicht in Datenbank enthalten
Track 5 nicht in Datenbank enthalten
Track 6 nicht in Datenbank enthalten
Track 7 nicht in Datenbank enthalten
Track 8 nicht in Datenbank enthalten
Track 9 nicht in Datenbank enthalten
Track 10 nicht in Datenbank enthalten
Track 11 nicht in Datenbank enthalten
Track 12 nicht in Datenbank enthalten
Track 13 nicht in Datenbank enthalten
Track 14 nicht in Datenbank enthalten
Track 15 nicht in Datenbank enthalten
Track 16 nicht in Datenbank enthalten
Track 17 nicht in Datenbank enthalten
Track 18 nicht in Datenbank enthalten
Track 19 nicht in Datenbank enthalten
Track 20 nicht in Datenbank enthalten
Track 21 nicht in Datenbank enthalten
Track 22 nicht in Datenbank enthalten
Track 23 nicht in Datenbank enthalten
Track 24 nicht in Datenbank enthalten

Keiner der Tracks ist in der AccurateRip Datenbank vorhanden

Ende des Statusreports

AUDIOCHECKER v2.0 beta (build 457) – by Dester – opdester@freemail.hu
~~~~~~~~~~~~~~~~~~~~~~~~~~~~~~~~~~
-=== DO NOT EDIT THIS FILE! ===-

Path: …\CD 17 – Auswärtsspiel + Verlängerung (2002)

001 -=- 01. Du Lebst Nur Einmal (Vorher).flac -=- CDDA (100%)
002 -=- 02. Schlampe (Nachher).flac -=- CDDA (100%)
003 -=- 03. Was Zählt.flac -=- CDDA (99%)
004 -=- 04. Auswärtsspiel.flac -=- CDDA (99%)
005 -=- 05. Cokane In My Brain.flac -=- CDDA (100%)
006 -=- 06. Graue Panther.flac -=- CDDA (100%)
007 -=- 07. Tier.flac -=- CDDA (100%)
008 -=- 08. Kanzler Sein ….flac -=- CDDA (100%)
009 -=- 09. Das Mädchen Aus Rottweil.flac -=- CDDA (100%)
010 -=- 10. Dankbar.flac -=- CDDA (100%)
011 -=- 11. Nur Zu Besuch.flac -=- CDDA (100%)
012 -=- 12. Daydreaming.flac -=- CDDA (100%)
013 -=- 13. Steh Auf, Wenn Du Am Boden Bist.flac -=- CDDA (100%)
014 -=- 14. Amanita Phalloides.flac -=- CDDA (100%)
015 -=- 15. Depression Deluxe.flac -=- CDDA (99%)
016 -=- 16. Schwimmen.flac -=- CDDA (100%)
017 -=- 17. Venceremos, Wir Werden Siegen.flac -=- CDDA (100%)
018 -=- 18. Kein Alkohol (Ist Auch Keine Lösung).flac -=- CDDA (100%)
019 -=- 19. Drüber Reden (‘Was Zählt’, Single, 2001).flac -=- CDDA (100%)
020 -=- 20. Schöner Warten (‘Was Zählt’, Single, 2001).flac -=- CDDA (100%)
021 -=- 21. Im Meer (‘Kein Alkohol Ist Auch Keine Lösung’, Single, 2002).flac -=- CDDA (99%)
022 -=- 22. Leben Im Bildausschnitt (‘Steh Auf, Wenn Du Am Boden Bist’, Single, 2002).flac -=- CDDA (100%)
023 -=- 23. Hirnfick (Futter Für Die Fische) (‘Nur Zu Besuch’, Single, 2002).flac -=- CDDA (100%)
024 -=- 24. Das Leben Ist Schwer, Wenn Man Dumm Ist (‘Zurück Zum Glück’, Demo, 2004).flac -=- CDDA (100%)

Summary 99,83% CDDA

78594980


Leave a Reply

Your email address will not be published. Required fields are marked *

This site uses Akismet to reduce spam. Learn how your comment data is processed.