Die Toten Hosen – Auf Dem Kreuzzug Ins Glück




Artist: Die Toten Hosen
Year: 1990
Genre: Punk
Notes: Discogs
Add. Notes:
Cover incl.: Yes
Encoder: FLAC
Bitrate: ~900 kBit/s (44.1 kHz/16 Bit/s)
Log & Cue incl.: Yes
Size: 726,05 MB
Password: “slam” (without ” “)


All Downloads/Hosters are compatible

Download 1
NitroFlare.com
KatFile.com
Turbobit.net
Rapidgator.net
UploadRar.com
Download 2
NitroFlare.com
KatFile.com
Turbobit.net
Rapidgator.net
UploadRar.com

Tracklist:

1-1 - Auf Dem Kreuzzug Ins Glück - 1:58
1-2 - Alles Wird Gut - 3:36
1-3 - Glückspiraten - 4:20
1-4 - Fünf Vor Zwölf - 3:12
1-5 - Geld $ Gold (Darf's Ein Bißchen Mehr Sein?) - 3:37
1-6 - First Time - 3:01
1-7 - Keine Chance Für Die Liebe - 3:39
1-8 - Die Opel-Gang Teil II - Im Wendekreis Des Opels - 
4:29
1-9 - Streichholzmann - 3:26
1-10 - All Die Ganzen Jahre - 3:18
1-11 - Sein Oder Nichtsein - 4:41
1-12 - New Guitar In Town - 3:23
1-13 - Schönen Gruß, Auf Wiederseh'n - 3:41
2-1 - Hip Hop Bommi Bop (Tap Into America-Mix) - 4:18
2-2 - Achterbahn - 3:35
2-3 - Der Auftrag - 5:06
2-4 - 1000 Nadeln - 2:40
2-5 - Mehr Davon (Dreadlock-Mix) - 4:25
2-6 - Im Jet-Grill - 2:05
2-7 - Azzuro - 2:32
2-8 - Liebesspieler (High-Noon-Mix) - 3:28
2-9 - Opel-Gang (Trucking-Mix) - 2:29
Willi - Ein Verlierer (Drama In 3 Akten) - 
2-10a - Fungizide - Genetisch Versaut - 1:17
2-10A - Willi Muss Ins Heim - 2:32
2-10b - Der Besuch - 1:17
2-10B - Willi's Weisse Weihnacht - 3:34
2-10c - Pubertät/Der Urlaub - 1:16
2-10C - Willi's Tiefer Fall - 3:00
2-10d - Der Polizist/Der Analphabet - 1:18

EAC-Log, CUE-Sheed & NFO:

Click to open spoiler
Exact Audio Copy V0.99 prebeta 4 from 23. January 2008

EAC Auslese-Logdatei vom 15. März 2009, 12:31

Die Toten Hosen / Auf dem Kreuzzug ins Glück (CD1)

Benutztes Laufwerk : HL-DT-STDVD-ROM GDR-H30N Adapter: 0 ID: 1

Lesemodus : Sicher
Benutze Accurate Stream : Ja
Audio Puffer abgeschaltet : Ja
Benutze C2 Fehlerinformationen : Nein

Leseoffset Korrektur : 6
Überlesen in das Lead-In und Lead-Out : Nein
Fülle fehlende Offsetsample mit Stille auf : Ja
Lösche führende und nachfolgende stille Blöcke : Nein
Null Samples gehen in CRC Berechnungen ein : Ja
Benutzte Schnittstelle : Installierte externe ASPI Schnittstelle

Benutztes Ausgabeformat : Interne WAV Routinen
Sampleformat : 44.100 Hz; 16 Bit; Stereo

TOC der ausgelesenen CD

Track | Start | Länge | Startsektor | Endsektor
——————————————————-
1 | 0:00.33 | 2:00.05 | 33 | 9037
2 | 2:00.38 | 3:37.60 | 9038 | 25372
3 | 5:38.23 | 4:22.45 | 25373 | 45067
4 | 10:00.68 | 3:13.32 | 45068 | 59574
5 | 13:14.25 | 3:39.08 | 59575 | 76007
6 | 16:53.33 | 3:01.40 | 76008 | 89622
7 | 19:54.73 | 3:44.15 | 89623 | 106437
8 | 23:39.13 | 4:27.62 | 106438 | 126524
9 | 28:07.00 | 3:32.45 | 126525 | 142469
10 | 31:39.45 | 3:26.73 | 142470 | 157992
11 | 35:06.43 | 4:35.05 | 157993 | 178622
12 | 39:41.48 | 3:25.32 | 178623 | 194029
13 | 43:07.05 | 3:44.23 | 194030 | 210852

Bereichsstatus und Fehler

Gewählter Bereich

Dateiname K:\Die Toten Hosen – Diskografie\Albums\1990 – Auf dem Kreuzzug ins Glueck\Die Toten Hosen – Auf dem Kreuzzug ins Glück (CD1).wav

Spitzenpegel 78.3 %
Bereichsqualität 100.0 %
Kopie CRC 8ABC0F70
Kopie OK

Keine Fehler aufgetreten

AccurateRip Übersicht

Track 1 akkurat gelesen (Zuversicht 11) [FF224530]
Track 2 akkurat gelesen (Zuversicht 11) [43A50C8A]
Track 3 akkurat gelesen (Zuversicht 11) [B27BB914]
Track 4 akkurat gelesen (Zuversicht 11) [E467D49C]
Track 5 akkurat gelesen (Zuversicht 11) [128569E4]
Track 6 akkurat gelesen (Zuversicht 11) [C66BD45A]
Track 7 akkurat gelesen (Zuversicht 11) [249CAD8C]
Track 8 akkurat gelesen (Zuversicht 11) [3A914EC5]
Track 9 akkurat gelesen (Zuversicht 11) [B3BC9483]
Track 10 akkurat gelesen (Zuversicht 11) [CA243E75]
Track 11 akkurat gelesen (Zuversicht 11) [2C3A1B08]
Track 12 akkurat gelesen (Zuversicht 11) [5F9D0213]
Track 13 akkurat gelesen (Zuversicht 11) [5FC18656]

Alle Tracks wurden akkurat gelesen

Ende des Statusreports

Exact Audio Copy V0.99 prebeta 4 from 23. January 2008

EAC Auslese-Logdatei vom 15. März 2009, 12:39

Die Toten Hosen / Auf dem Kreuzzug ins Glueck – CD2

Benutztes Laufwerk : HL-DT-STDVD-ROM GDR-H30N Adapter: 0 ID: 1

Lesemodus : Sicher
Benutze Accurate Stream : Ja
Audio Puffer abgeschaltet : Ja
Benutze C2 Fehlerinformationen : Nein

Leseoffset Korrektur : 6
Überlesen in das Lead-In und Lead-Out : Nein
Fülle fehlende Offsetsample mit Stille auf : Ja
Lösche führende und nachfolgende stille Blöcke : Nein
Null Samples gehen in CRC Berechnungen ein : Ja
Benutzte Schnittstelle : Installierte externe ASPI Schnittstelle

Benutztes Ausgabeformat : Interne WAV Routinen
Sampleformat : 44.100 Hz; 16 Bit; Stereo

TOC der ausgelesenen CD

Track | Start | Länge | Startsektor | Endsektor
——————————————————-
1 | 0:00.32 | 4:20.65 | 32 | 19596
2 | 4:21.22 | 5:08.13 | 19597 | 42709
3 | 9:29.35 | 2:40.55 | 42710 | 54764
4 | 12:10.15 | 3:37.35 | 54765 | 71074
5 | 15:47.50 | 4:28.45 | 71075 | 91219
6 | 20:16.20 | 2:07.02 | 91220 | 100746
7 | 22:23.22 | 2:52.20 | 100747 | 113666
8 | 25:15.42 | 3:31.20 | 113667 | 129511
9 | 28:46.62 | 2:31.38 | 129512 | 140874
10 | 31:18.25 | 1:17.60 | 140875 | 146709
11 | 32:36.10 | 2:34.12 | 146710 | 158271
12 | 35:10.22 | 1:18.05 | 158272 | 164126
13 | 36:28.27 | 3:39.13 | 164127 | 180564
14 | 40:07.40 | 1:17.32 | 180565 | 186371
15 | 41:24.72 | 3:01.70 | 186372 | 200016
16 | 44:26.67 | 1:22.38 | 200017 | 206204

Bereichsstatus und Fehler

Gewählter Bereich

Dateiname K:\Die Toten Hosen – Diskografie\Albums\1990 – Auf dem Kreuzzug ins Glueck\Die Toten Hosen – Auf dem Kreuzzug ins Glueck – CD2.wav

Spitzenpegel 71.3 %
Bereichsqualität 100.0 %
Kopie CRC B918F954
Kopie OK

Keine Fehler aufgetreten

AccurateRip Übersicht

Track 1 akkurat gelesen (Zuversicht 11) [6F2EF42C]
Track 2 akkurat gelesen (Zuversicht 11) [47CA116E]
Track 3 akkurat gelesen (Zuversicht 11) [4D838C30]
Track 4 akkurat gelesen (Zuversicht 11) [92F6E52C]
Track 5 akkurat gelesen (Zuversicht 11) [CD995F57]
Track 6 akkurat gelesen (Zuversicht 11) [86FB3BAB]
Track 7 akkurat gelesen (Zuversicht 11) [EF9037FD]
Track 8 akkurat gelesen (Zuversicht 11) [0B001883]
Track 9 akkurat gelesen (Zuversicht 11) [9218689E]
Track 10 akkurat gelesen (Zuversicht 11) [2DEA7D38]
Track 11 akkurat gelesen (Zuversicht 11) [1702480E]
Track 12 akkurat gelesen (Zuversicht 11) [D1E79234]
Track 13 akkurat gelesen (Zuversicht 11) [FDEC05D0]
Track 14 akkurat gelesen (Zuversicht 11) [261B2803]
Track 15 akkurat gelesen (Zuversicht 11) [494A719D]
Track 16 akkurat gelesen (Zuversicht 11) [9B9AEFB4]

Alle Tracks wurden akkurat gelesen

Ende des Statusreports

REM GENRE Punk
REM DATE 1990
REM DISCID A20AFB0D
REM COMMENT “ExactAudioCopy v0.99pb4”
PERFORMER “Die Toten Hosen”
TITLE “Auf dem Kreuzzug ins Glück (CD1)”
FILE “Die Toten Hosen – Auf dem Kreuzzug ins Gluck (CD1).flac” WAVE
TRACK 01 AUDIO
TITLE “Auf dem Kreuzzug ins Glück”
PERFORMER “Die Toten Hosen”
INDEX 00 00:00:00
INDEX 01 00:00:33
TRACK 02 AUDIO
TITLE “Alles wird gut”
PERFORMER “Die Toten Hosen”
INDEX 00 02:00:35
INDEX 01 02:00:38
TRACK 03 AUDIO
TITLE “Glückspiraten”
PERFORMER “Die Toten Hosen”
INDEX 00 05:38:21
INDEX 01 05:38:23
TRACK 04 AUDIO
TITLE “Fünf vor zwölf”
PERFORMER “Die Toten Hosen”
INDEX 00 10:00:65
INDEX 01 10:00:68
TRACK 05 AUDIO
TITLE “Geld $ Gold (Darf’s ein bisschen mehr sein?)”
PERFORMER “Die Toten Hosen”
INDEX 00 13:14:23
INDEX 01 13:14:25
TRACK 06 AUDIO
TITLE “First time”
PERFORMER “Die Toten Hosen”
INDEX 00 16:53:30
INDEX 01 16:53:33
TRACK 07 AUDIO
TITLE “Keine Chance für die Liebe”
PERFORMER “Die Toten Hosen”
INDEX 00 19:54:70
INDEX 01 19:54:73
TRACK 08 AUDIO
TITLE “Die Opel-Gang Teil II – Im Wendekreis des Opels”
PERFORMER “Die Toten Hosen”
INDEX 00 23:37:33
INDEX 01 23:39:13
TRACK 09 AUDIO
TITLE “Streichholzmann”
PERFORMER “Die Toten Hosen”
INDEX 00 28:06:73
INDEX 01 28:07:00
TRACK 10 AUDIO
TITLE “All die ganzen Jahre”
PERFORMER “Die Toten Hosen”
INDEX 00 31:39:43
INDEX 01 31:39:45
TRACK 11 AUDIO
TITLE “Sein oder Nichtsein”
PERFORMER “Die Toten Hosen”
INDEX 00 35:06:40
INDEX 01 35:06:43
TRACK 12 AUDIO
TITLE “New guitar in town”
PERFORMER “Die Toten Hosen”
INDEX 00 39:41:45
INDEX 01 39:41:48
TRACK 13 AUDIO
TITLE “Schönen Gruß, auf Wiederseh’n”
PERFORMER “Die Toten Hosen”
INDEX 00 43:07:03
INDEX 01 43:07:05

REM GENRE “Punk Rock”
REM DATE 1990
REM DISCID E80ABD10
REM COMMENT “ExactAudioCopy v0.99pb4”
PERFORMER “Die Toten Hosen”
TITLE “Auf dem Kreuzzug ins Glueck – CD2”
FILE “Die Toten Hosen – Auf dem Kreuzzug ins Glueck – CD2.flac” WAVE
TRACK 01 AUDIO
TITLE “Hip Hop Bommi Bop (Tap into America-Mix)”
PERFORMER “Die Toten Hosen”
INDEX 00 00:00:00
INDEX 01 00:00:32
TRACK 02 AUDIO
TITLE “Achterbahn”
PERFORMER “Die Toten Hosen”
INDEX 00 04:21:20
INDEX 01 04:21:22
TRACK 03 AUDIO
TITLE “Der Auftrag”
PERFORMER “Die Toten Hosen”
INDEX 00 09:29:32
INDEX 01 09:29:35
TRACK 04 AUDIO
TITLE “1000 Nadeln”
PERFORMER “Die Toten Hosen”
INDEX 00 12:10:12
INDEX 01 12:10:15
TRACK 05 AUDIO
TITLE “Mehr davon (Dreadlock-Mix)”
PERFORMER “Die Toten Hosen”
INDEX 00 15:47:47
INDEX 01 15:47:50
TRACK 06 AUDIO
TITLE “Im Jet-Grill”
PERFORMER “Die Toten Hosen”
INDEX 00 20:14:42
INDEX 01 20:16:20
TRACK 07 AUDIO
TITLE “Azzuro”
PERFORMER “Die Toten Hosen”
INDEX 00 22:23:20
INDEX 01 22:23:22
TRACK 08 AUDIO
TITLE “Liebesspieler (High-Noon-Mix)”
PERFORMER “Die Toten Hosen”
INDEX 00 25:15:40
INDEX 01 25:15:42
TRACK 09 AUDIO
TITLE “Opel-Gang (Trucking-Mix)”
PERFORMER “Die Toten Hosen”
INDEX 00 28:46:60
INDEX 01 28:46:62
TRACK 10 AUDIO
TITLE “Willi – ein Verlierer (Drama in drei Akten) mit Gerhard Polt und den Biermoes…”
PERFORMER “Die Toten Hosen”
INDEX 00 31:18:22
INDEX 01 31:18:25
TRACK 11 AUDIO
TITLE “Willi muss ins Heim”
PERFORMER “Die Toten Hosen”
INDEX 00 32:36:07
INDEX 01 32:36:10
TRACK 12 AUDIO
TITLE “Der Besuch”
PERFORMER “Die Toten Hosen”
INDEX 00 35:10:20
INDEX 01 35:10:22
TRACK 13 AUDIO
TITLE “Willi’s weisse Weihnacht”
PERFORMER “Die Toten Hosen”
INDEX 00 36:28:25
INDEX 01 36:28:27
TRACK 14 AUDIO
TITLE “Pubertaet / Der Urlaub”
PERFORMER “Die Toten Hosen”
INDEX 00 40:07:38
INDEX 01 40:07:40
TRACK 15 AUDIO
TITLE “Willi’s tiefer Fall”
PERFORMER “Die Toten Hosen”
INDEX 00 41:24:70
INDEX 01 41:24:72
TRACK 16 AUDIO
TITLE “Der Polizist / Der Analphabet”
PERFORMER “Die Toten Hosen”
INDEX 00 44:26:65
INDEX 01 44:26:67


Leave a Reply

Your email address will not be published. Required fields are marked *

This site uses Akismet to reduce spam. Learn how your comment data is processed.