Die Gefahr – Schwarzweiss (Enhanced)




Artist: Die Gefahr
Year: 2006
Genre: Punk
Notes: Discogs
Add. Notes: Enhanced
Cover incl.: Yes
Encoder: FLAC
Bitrate: ~1100 kBit/s (44.1 kHz/16 Bit/s)
Log & Cue incl.: Yes
Size: 540 MB
Password: “slam” (without ” “)


All Downloads/Hosters are compatible

Download 1
KatFile.com
Turbobit.net
Rapidgator.net
Turbobit.net
Download 2
KatFile.com
Turbobit.net
Rapidgator.net
Turbobit.net

Tracklist:

1. Welcome To Hell
2. Bankraub
3. Untergehn
4. Unfreundlichehaessliche
5. Es Geht Weiter
6. Genuss (Meiwes)
7. Lange Messer
8. Rockabillywilly
9. Cruel Adolf
10. Schwarzweiss
11. Schönen Guten Tag
12. Keiner Der Tage
13. Dummland
14. Weg Zurück
15. Verachtung Brennt
16. Springen
17. 7und40 11

+ PC-Bonus

EAC-Log, CUE-Sheed & NFO:

Click to open spoiler
Exact Audio Copy V1.3 from 2. September 2016

EAC Auslese-Logdatei vom 13. Oktober 2019, 15:09

Die Gefahr / Schwarzweiss

Benutztes Laufwerk : ASUS DRW-24D5MT Adapter: 1 ID: 0

Lesemodus : Sicher
Benutze Accurate Stream : Ja
Audio Puffer abgeschaltet : Ja
Benutze C2 Fehlerinformationen : Nein

Leseoffset Korrektur : 6
Überlesen in das Lead-In und Lead-Out : Nein
Fülle fehlende Offsetsample mit Stille auf : Ja
Lösche führende und nachfolgende stille Blöcke : Nein
Null Samples gehen in CRC Berechnungen ein : Ja
Benutzte Schnittstelle : Natürliche Win32 Schnittstelle für Win NT/2000/XP
Pausenbehandlung : Nicht erkannt, daher hinter dem vorigen Track angehängt

Benutztes Ausgabeformat : Benutzerdefinierter Komprimierer
Gewählte Bitrate : 1024 kBit/s
Qualität : Hoch
Füge ID3 Tag hinzu : Nein
Kommandozeilen Komprimierer : C:\Program Files (x86)\Exact Audio Copy\FLAC\FLAC.EXE
Zusätzliche Kommandozeilenoptionen : -8 -V -T “ARTIST=%artist%” -T “TITLE=%title%” -T “ALBUM=%albumtitle%” -T “DATE=%year%” -T “TRACKNUMBER=%tracknr%” -T “GENRE=%genre%” -T “COMMENT=%comment%” -T “BAND=%albuminterpret%” -T “COMPOSER=%composer%” %haslyrics%–tag-from-file=LYRICS=”%lyricsfile%”%haslyrics% -T “DISCNUMBER=%cdnumber%” -T “TOTALDISCS=%totalcds%” -T “TOTALTRACKS=%numtracks%” %hascover%–picture=”%coverfile%”%hascover% %source% -o %dest%

TOC der ausgelesenen CD

Track | Start | Länge | Startsektor | Endsektor
——————————————————-
1 | 0:00.00 | 2:51.68 | 0 | 12892
2 | 2:51.68 | 2:44.18 | 12893 | 25210
3 | 5:36.11 | 2:57.44 | 25211 | 38529
4 | 8:33.55 | 3:12.34 | 38530 | 52963
5 | 11:46.14 | 3:26.73 | 52964 | 68486
6 | 15:13.12 | 3:32.38 | 68487 | 84424
7 | 18:45.50 | 3:15.46 | 84425 | 99095
8 | 22:01.21 | 2:40.08 | 99096 | 111103
9 | 24:41.29 | 3:38.59 | 111104 | 127512
10 | 28:20.13 | 2:45.20 | 127513 | 139907
11 | 31:05.33 | 3:14.20 | 139908 | 154477
12 | 34:19.53 | 3:06.20 | 154478 | 168447
13 | 37:25.73 | 2:52.72 | 168448 | 181419
14 | 40:18.70 | 3:58.12 | 181420 | 199281
15 | 44:17.07 | 3:52.37 | 199282 | 216718
16 | 48:09.44 | 3:00.02 | 216719 | 230220
17 | 51:09.46 | 2:44.45 | 230221 | 242565
18 | 56:26.16 | 13:40.68 | 253966 | 315533

Track 1

Dateiname M:\SLAM\www.slam.ws – Lossless Alternative Music\Die Gefahr\Schwarzweiss\01. Welcome To Hell.wav

Spitzenpegel 100.0 %
Auslesegeschwindigkeit 3.4 X
Track Qualität 100.0 %
Kopie CRC C7AB3D95
Akkurat gelesen (Zuversicht 4) [895343AC] (AR v2)
Kopie OK

Track 2

Dateiname M:\SLAM\www.slam.ws – Lossless Alternative Music\Die Gefahr\Schwarzweiss\02. Bankraub.wav

Spitzenpegel 100.0 %
Auslesegeschwindigkeit 2.6 X
Track Qualität 100.0 %
Kopie CRC 8D1134B1
Akkurat gelesen (Zuversicht 4) [AC6719BD] (AR v2)
Kopie OK

Track 3

Dateiname M:\SLAM\www.slam.ws – Lossless Alternative Music\Die Gefahr\Schwarzweiss\03. Untergehen.wav

Spitzenpegel 100.0 %
Auslesegeschwindigkeit 2.1 X
Track Qualität 99.9 %
Kopie CRC 0574C832
Akkurat gelesen (Zuversicht 4) [2D34F7CA] (AR v2)
Kopie OK

Track 4

Dateiname M:\SLAM\www.slam.ws – Lossless Alternative Music\Die Gefahr\Schwarzweiss\04. Unfreundliche hässliche.wav

Spitzenpegel 100.0 %
Auslesegeschwindigkeit 3.1 X
Track Qualität 100.0 %
Kopie CRC 3549341F
Akkurat gelesen (Zuversicht 4) [12BA364E] (AR v2)
Kopie OK

Track 5

Dateiname M:\SLAM\www.slam.ws – Lossless Alternative Music\Die Gefahr\Schwarzweiss\05. Es geht weiter.wav

Spitzenpegel 100.0 %
Auslesegeschwindigkeit 3.3 X
Track Qualität 100.0 %
Kopie CRC 8DC8B236
Akkurat gelesen (Zuversicht 4) [CC4E4753] (AR v2)
Kopie OK

Track 6

Dateiname M:\SLAM\www.slam.ws – Lossless Alternative Music\Die Gefahr\Schwarzweiss\06. Genuss (Meiwes).wav

Spitzenpegel 100.0 %
Auslesegeschwindigkeit 3.5 X
Track Qualität 100.0 %
Kopie CRC 74B3DF26
Akkurat gelesen (Zuversicht 4) [125ED0E3] (AR v2)
Kopie OK

Track 7

Dateiname M:\SLAM\www.slam.ws – Lossless Alternative Music\Die Gefahr\Schwarzweiss\07. Lange Messer.wav

Spitzenpegel 100.0 %
Auslesegeschwindigkeit 3.6 X
Track Qualität 100.0 %
Kopie CRC EFA59EFF
Akkurat gelesen (Zuversicht 4) [88BC9686] (AR v2)
Kopie OK

Track 8

Dateiname M:\SLAM\www.slam.ws – Lossless Alternative Music\Die Gefahr\Schwarzweiss\08. Rockabillywilly.wav

Spitzenpegel 100.0 %
Auslesegeschwindigkeit 3.6 X
Track Qualität 100.0 %
Kopie CRC E6737785
Akkurat gelesen (Zuversicht 4) [30B939A4] (AR v2)
Kopie OK

Track 9

Dateiname M:\SLAM\www.slam.ws – Lossless Alternative Music\Die Gefahr\Schwarzweiss\09. Cruel Adolf.wav

Spitzenpegel 100.0 %
Auslesegeschwindigkeit 3.1 X
Track Qualität 99.9 %
Kopie CRC 0F1EA39C
Akkurat gelesen (Zuversicht 4) [40D03A10] (AR v2)
Kopie OK

Track 10

Dateiname M:\SLAM\www.slam.ws – Lossless Alternative Music\Die Gefahr\Schwarzweiss\10. Schwarzweiss.wav

Spitzenpegel 100.0 %
Auslesegeschwindigkeit 3.9 X
Track Qualität 100.0 %
Kopie CRC 4306D6A2
Akkurat gelesen (Zuversicht 4) [EE621E2A] (AR v2)
Kopie OK

Track 11

Dateiname M:\SLAM\www.slam.ws – Lossless Alternative Music\Die Gefahr\Schwarzweiss\11. Schönen guten Tag.wav

Spitzenpegel 100.0 %
Auslesegeschwindigkeit 4.1 X
Track Qualität 100.0 %
Kopie CRC 5A4E4A91
Akkurat gelesen (Zuversicht 4) [BB3F26EC] (AR v2)
Kopie OK

Track 12

Dateiname M:\SLAM\www.slam.ws – Lossless Alternative Music\Die Gefahr\Schwarzweiss\12. Keiner der Tage.wav

Spitzenpegel 100.0 %
Auslesegeschwindigkeit 3.2 X
Track Qualität 99.9 %
Kopie CRC 9A8A99CA
Akkurat gelesen (Zuversicht 4) [8F94AE8F] (AR v2)
Kopie OK

Track 13

Dateiname M:\SLAM\www.slam.ws – Lossless Alternative Music\Die Gefahr\Schwarzweiss\13. Dummland.wav

Spitzenpegel 100.0 %
Auslesegeschwindigkeit 3.2 X
Track Qualität 99.9 %
Kopie CRC 7AFEBB2A
Akkurat gelesen (Zuversicht 4) [DE5A4D45] (AR v2)
Kopie OK

Track 14

Dateiname M:\SLAM\www.slam.ws – Lossless Alternative Music\Die Gefahr\Schwarzweiss\14. Weg zurück.wav

Spitzenpegel 100.0 %
Auslesegeschwindigkeit 4.6 X
Track Qualität 100.0 %
Kopie CRC 3ABD517D
Akkurat gelesen (Zuversicht 4) [1F0B5B4D] (AR v2)
Kopie OK

Track 15

Dateiname M:\SLAM\www.slam.ws – Lossless Alternative Music\Die Gefahr\Schwarzweiss\15. Verachtung brennt.wav

Spitzenpegel 100.0 %
Auslesegeschwindigkeit 4.8 X
Track Qualität 100.0 %
Kopie CRC EB96D791
Akkurat gelesen (Zuversicht 4) [CD4EC815] (AR v2)
Kopie OK

Track 16

Dateiname M:\SLAM\www.slam.ws – Lossless Alternative Music\Die Gefahr\Schwarzweiss\16. Springer.wav

Spitzenpegel 100.0 %
Auslesegeschwindigkeit 4.7 X
Track Qualität 100.0 %
Kopie CRC A5BC7C4F
Akkurat gelesen (Zuversicht 4) [0B27DB1C] (AR v2)
Kopie OK

Track 17

Dateiname M:\SLAM\www.slam.ws – Lossless Alternative Music\Die Gefahr\Schwarzweiss\17. 7und40 11.wav

Spitzenpegel 100.0 %
Auslesegeschwindigkeit 4.7 X
Track Qualität 100.0 %
Kopie CRC 07C1E679
Akkurat gelesen (Zuversicht 4) [32D50071] (AR v2)
Kopie OK

Alle Tracks wurden akkurat gelesen

Keine Fehler aufgetreten

Ende des Statusreports

—- CUETools DB Plugin V2.1.6

[CTDB TOCID: U3OhmtBPeXq1.9qHmWM8oajV2k8-] found
Submit result: already submitted
Track | CTDB Status
1 | (5/5) Accurately ripped
2 | (5/5) Accurately ripped
3 | (5/5) Accurately ripped
4 | (5/5) Accurately ripped
5 | (5/5) Accurately ripped
6 | (5/5) Accurately ripped
7 | (5/5) Accurately ripped
8 | (5/5) Accurately ripped
9 | (5/5) Accurately ripped
10 | (5/5) Accurately ripped
11 | (5/5) Accurately ripped
12 | (4/5) Accurately ripped
13 | (5/5) Accurately ripped
14 | (5/5) Accurately ripped
15 | (4/5) Accurately ripped
16 | (4/5) Accurately ripped
17 | (5/5) Accurately ripped

REM GENRE “Punk Rock”
REM DATE 2006
REM DISCID F3106F12
REM COMMENT “ExactAudioCopy v1.3”
PERFORMER “Die Gefahr”
TITLE “Schwarzweiss”
REM COMPOSER “”
FILE “Die Gefahr\Schwarzweiss\01. Welcome To Hell.wav” WAVE
TRACK 01 AUDIO
TITLE “Welcome To Hell”
PERFORMER “Die Gefahr”
REM COMPOSER “”
FLAGS DCP
INDEX 01 00:00:00
TRACK 02 AUDIO
TITLE “Bankraub”
PERFORMER “Die Gefahr”
REM COMPOSER “”
FLAGS DCP
INDEX 00 02:49:68
FILE “Die Gefahr\Schwarzweiss\02. Bankraub.wav” WAVE
INDEX 01 00:00:00
TRACK 03 AUDIO
TITLE “Untergehen”
PERFORMER “Die Gefahr”
REM COMPOSER “”
FLAGS DCP
INDEX 00 02:42:18
FILE “Die Gefahr\Schwarzweiss\03. Untergehen.wav” WAVE
INDEX 01 00:00:00
TRACK 04 AUDIO
TITLE “Unfreundliche hässliche”
PERFORMER “Die Gefahr”
REM COMPOSER “”
FLAGS DCP
INDEX 00 02:55:44
FILE “Die Gefahr\Schwarzweiss\04. Unfreundliche hässliche.wav” WAVE
INDEX 01 00:00:00
TRACK 05 AUDIO
TITLE “Es geht weiter”
PERFORMER “Die Gefahr”
REM COMPOSER “”
FLAGS DCP
INDEX 00 03:10:34
FILE “Die Gefahr\Schwarzweiss\05. Es geht weiter.wav” WAVE
INDEX 01 00:00:00
TRACK 06 AUDIO
TITLE “Genuss (Meiwes)”
PERFORMER “Die Gefahr”
REM COMPOSER “”
FLAGS DCP
INDEX 00 03:24:73
FILE “Die Gefahr\Schwarzweiss\06. Genuss (Meiwes).wav” WAVE
INDEX 01 00:00:00
TRACK 07 AUDIO
TITLE “Lange Messer”
PERFORMER “Die Gefahr”
REM COMPOSER “”
FLAGS DCP
INDEX 00 03:30:38
FILE “Die Gefahr\Schwarzweiss\07. Lange Messer.wav” WAVE
INDEX 01 00:00:00
TRACK 08 AUDIO
TITLE “Rockabillywilly”
PERFORMER “Die Gefahr”
REM COMPOSER “”
FLAGS DCP
INDEX 00 03:13:46
FILE “Die Gefahr\Schwarzweiss\08. Rockabillywilly.wav” WAVE
INDEX 01 00:00:00
TRACK 09 AUDIO
TITLE “Cruel Adolf”
PERFORMER “Die Gefahr”
REM COMPOSER “”
FLAGS DCP
INDEX 00 02:38:08
FILE “Die Gefahr\Schwarzweiss\09. Cruel Adolf.wav” WAVE
INDEX 01 00:00:00
TRACK 10 AUDIO
TITLE “Schwarzweiss”
PERFORMER “Die Gefahr”
REM COMPOSER “”
FLAGS DCP
INDEX 00 03:36:59
FILE “Die Gefahr\Schwarzweiss\10. Schwarzweiss.wav” WAVE
INDEX 01 00:00:00
TRACK 11 AUDIO
TITLE “Schönen guten Tag”
PERFORMER “Die Gefahr”
REM COMPOSER “”
FLAGS DCP
INDEX 00 02:43:20
FILE “Die Gefahr\Schwarzweiss\11. Schönen guten Tag.wav” WAVE
INDEX 01 00:00:00
TRACK 12 AUDIO
TITLE “Keiner der Tage”
PERFORMER “Die Gefahr”
REM COMPOSER “”
FLAGS DCP
INDEX 00 03:12:20
FILE “Die Gefahr\Schwarzweiss\12. Keiner der Tage.wav” WAVE
INDEX 01 00:00:00
TRACK 13 AUDIO
TITLE “Dummland”
PERFORMER “Die Gefahr”
REM COMPOSER “”
FLAGS DCP
INDEX 00 03:04:20
FILE “Die Gefahr\Schwarzweiss\13. Dummland.wav” WAVE
INDEX 01 00:00:00
TRACK 14 AUDIO
TITLE “Weg zurück”
PERFORMER “Die Gefahr”
REM COMPOSER “”
FLAGS DCP
INDEX 00 02:50:72
FILE “Die Gefahr\Schwarzweiss\14. Weg zurück.wav” WAVE
INDEX 01 00:00:00
TRACK 15 AUDIO
TITLE “Verachtung brennt”
PERFORMER “Die Gefahr”
REM COMPOSER “”
FLAGS DCP
INDEX 00 03:56:12
FILE “Die Gefahr\Schwarzweiss\15. Verachtung brennt.wav” WAVE
INDEX 01 00:00:00
TRACK 16 AUDIO
TITLE “Springer”
PERFORMER “Die Gefahr”
REM COMPOSER “”
FLAGS DCP
INDEX 00 03:50:37
FILE “Die Gefahr\Schwarzweiss\16. Springer.wav” WAVE
INDEX 01 00:00:00
TRACK 17 AUDIO
TITLE “7und40 11”
PERFORMER “Die Gefahr”
REM COMPOSER “”
FLAGS DCP
INDEX 00 02:58:02
FILE “Die Gefahr\Schwarzweiss\17. 7und40 11.wav” WAVE
INDEX 01 00:00:00
TRACK 18 MODEx/2xxx
TITLE “Daten-CD”
PERFORMER “Die Gefahr”
REM COMPOSER “”
INDEX 00 02:44:45


Leave a Reply

Your email address will not be published. Required fields are marked *

This site uses Akismet to reduce spam. Learn how your comment data is processed.