Die Ärzte – Wir wollen nur deine Seele




Artist: Die Ärzte
Year: 1999
Genre: Punk
Notes: Discogs
Add. Notes:
Cover incl.: Yes
Encoder: FLAC
Bitrate: ~1000 kBit/s (44.1 kHz/16 Bit/s)
Log & Cue incl.: Yes
Size: 1188 MB
Password: “slam” (without ” “)


All Downloads/Hosters are compatible

Download 1
KatFile.com
Rapidgator.net
Turbobit.net
FileFactory.com
Download 2
KatFile.com
Rapidgator.net
Turbobit.net
FileFactory.com

Tracklist:

Nö Sleep 'Til Viehauktiönshalle 
Öldenbürg
1-01 - Ein Lied Für Dich - 2:36
1-02 - Schunder-Song - 2:41
1-03 - Angeber - 2:29
1-04 - Begrüssung - 0:18
1-05 - Party Stinkt - 2:59
1-06 - Ich Bin Reich - 3:22
1-07 - Geh Mit Mir - 2:23
1-08 - Langweilig - 3:13
1-09 - Ignorama - 2:37
1-10 - Ich Weiss Nicht (Ob Es Liebe 
Ist) - 4:56
1-11 - Der Graf - 4:08
1-12 - Rebell - 3:59
1-13 - Zitroneneis - 2:05
1-14 - Liebe Und Schmerz - 3:27
1-15 - Käfer - 2:34
1-16 - Meine Freunde - 1:56
1-17 - Hey Huh (In Scheiben) - 3:54
1-18 - Lady - 1:29
1-19 - 1/2 Lovesong - 3:53
1-20 - Der Misanthrop - 2:58
1-21 - Teenager Liebe - 3:05
1-22 - Goldenes Handwerk / Punk 
Ist... - 5:45
1-23 - Schrei Nach Liebe - 3:06
1-24 - Der Lustige Astronaut - 3:58

Halt's Maul Und Spiel!
2-01 - Super Drei - 2:30
2-02 - Vermissen, Baby - 3:37
2-03 - 3-Tage-Bart - 3:16
2-04 - Vokuhila - 3:37
2-05 - Sommer, Palmen, 
Sonnenschein - 2:22
2-06 - Ansage - 3:05
2-07 - Nie Wieder Krieg, Nie Mehr Las 
Vegas! - 3:17
2-08 - Deutschrockgirl - 1:38
2-09 - Die Traurige Ballade Von Susi 
Spakowski - 4:11
2-10 - Dauerwelle Vs. Minipli - 1:03
2-11 - Kopfüber In Die Hölle / 
Revolution - 2:52
2-12 - Friedenspanzer - 3:41
2-13 - Die Allerschürfste - 1:21
2-14 - BGS - 1:25
2-15 - Kopfhaut - 2:49
2-16 - Omaboy - 6:42
2-17 - Für Immer - 3:33
2-18 - Ekelpack - 2:01
2-19 - Ein Lied Über Zensur - 2:56
2-20 - Mach Die Augen Zu - 4:24
2-21 - Männer Sind Schweine - 4:16
2-22 - Elke - 4:16
2-23 - Gute Nacht - 6:46

Invasion Der Vernunft
3-01 - Sprüche II - 21:00

EAC-Log, CUE-Sheed & NFO:

Click to open spoiler
Exact Audio Copy V0.99 prebeta 4 from 23. January 2008

EAC extraction logfile from 7. February 2009, 10:49

Die Ärzte / Wir wollen nur deine Seele

Used drive : TOSHIBA DVD-ROM SDM2012C Adapter: 0 ID: 0

Read mode : Secure
Utilize accurate stream : Yes
Defeat audio cache : Yes
Make use of C2 pointers : No

Read offset correction : 6
Overread into Lead-In and Lead-Out : No
Fill up missing offset samples with silence : Yes
Delete leading and trailing silent blocks : No
Null samples used in CRC calculations : Yes
Used interface : Native Win32 interface for Win NT & 2000
Gap handling : Appended to previous track

Used output format : User Defined Encoder
Selected bitrate : 128 kBit/s
Quality : High
Add ID3 tag : No
Command line compressor : C:\Programme\Exact Audio Copy\Flac\flac.exe
Additional command line options : -V -8 -T “artist=%a” -T “title=%t” -T “album=%g” -T “date=%y” -T “tracknumber=%n” -T “genre=%m” %s

TOC of the extracted CD

Track | Start | Length | Start sector | End sector
———————————————————
1 | 0:00.32 | 2:37.13 | 32 | 11819
2 | 2:37.45 | 2:40.62 | 11820 | 23881
3 | 5:18.32 | 2:29.23 | 23882 | 35079
4 | 7:47.55 | 0:18.25 | 35080 | 36454
5 | 8:06.05 | 2:59.67 | 36455 | 49946
6 | 11:05.72 | 3:22.10 | 49947 | 65106
7 | 14:28.07 | 2:23.65 | 65107 | 75896
8 | 16:51.72 | 3:13.23 | 75897 | 90394
9 | 20:05.20 | 2:37.52 | 90395 | 102221
10 | 22:42.72 | 4:56.30 | 102222 | 124451
11 | 27:39.27 | 4:08.15 | 124452 | 143066
12 | 31:47.42 | 3:59.28 | 143067 | 161019
13 | 35:46.70 | 2:05.30 | 161020 | 170424
14 | 37:52.25 | 3:27.20 | 170425 | 185969
15 | 41:19.45 | 2:34.57 | 185970 | 197576
16 | 43:54.27 | 1:56.30 | 197577 | 206306
17 | 45:50.57 | 3:54.28 | 206307 | 223884
18 | 49:45.10 | 1:29.70 | 223885 | 230629
19 | 51:15.05 | 3:53.50 | 230630 | 248154
20 | 55:08.55 | 2:58.32 | 248155 | 261536
21 | 58:07.12 | 3:05.58 | 261537 | 275469
22 | 61:12.70 | 5:44.62 | 275470 | 301331
23 | 66:57.57 | 3:05.50 | 301332 | 315256
24 | 70:03.32 | 3:58.00 | 315257 | 333106

Track 1

Filename C:\EACrips\Die Aerzte – 1999 – Wir wollen nur deine Seele\01 – Ein Lied fuer dich.wav

Pre-gap length 0:00:02.42

Peak level 99.4 %
Track quality 100.0 %
Test CRC 7BDB28C4
Copy CRC 7BDB28C4
Accurately ripped (confidence 44) [428B0533]
Copy OK

Track 2

Filename C:\EACrips\Die Aerzte – 1999 – Wir wollen nur deine Seele\02 – Schunder-Song.wav

Peak level 99.0 %
Track quality 100.0 %
Test CRC 8A4BABF7
Copy CRC 8A4BABF7
Accurately ripped (confidence 44) [6DB91B89]
Copy OK

Track 3

Filename C:\EACrips\Die Aerzte – 1999 – Wir wollen nur deine Seele\03 – Angeber.wav

Peak level 99.6 %
Track quality 100.0 %
Test CRC B841E3AB
Copy CRC B841E3AB
Accurately ripped (confidence 44) [23B15F16]
Copy OK

Track 4

Filename C:\EACrips\Die Aerzte – 1999 – Wir wollen nur deine Seele\04 – Begruessung.wav

Peak level 99.0 %
Track quality 100.0 %
Test CRC E88BB0ED
Copy CRC E88BB0ED
Accurately ripped (confidence 44) [9AA6A062]
Copy OK

Track 5

Filename C:\EACrips\Die Aerzte – 1999 – Wir wollen nur deine Seele\05 – Party stinkt.wav

Peak level 99.0 %
Track quality 100.0 %
Test CRC 85E88928
Copy CRC 85E88928
Accurately ripped (confidence 43) [93AFE8C5]
Copy OK

Track 6

Filename C:\EACrips\Die Aerzte – 1999 – Wir wollen nur deine Seele\06 – Ich bin reich.wav

Peak level 99.2 %
Track quality 100.0 %
Test CRC 757ABE34
Copy CRC 757ABE34
Accurately ripped (confidence 44) [C956A218]
Copy OK

Track 7

Filename C:\EACrips\Die Aerzte – 1999 – Wir wollen nur deine Seele\07 – Geh mit mir.wav

Peak level 100.0 %
Track quality 100.0 %
Test CRC 2BB43A84
Copy CRC 2BB43A84
Accurately ripped (confidence 43) [A03A8B62]
Copy OK

Track 8

Filename C:\EACrips\Die Aerzte – 1999 – Wir wollen nur deine Seele\08 – Langweilig.wav

Peak level 99.0 %
Track quality 100.0 %
Test CRC CCBE4D50
Copy CRC CCBE4D50
Accurately ripped (confidence 43) [BF732D7B]
Copy OK

Track 9

Filename C:\EACrips\Die Aerzte – 1999 – Wir wollen nur deine Seele\09 – Ignorama.wav

Peak level 99.1 %
Track quality 100.0 %
Test CRC DCF7AA89
Copy CRC DCF7AA89
Accurately ripped (confidence 42) [4F95154D]
Copy OK

Track 10

Filename C:\EACrips\Die Aerzte – 1999 – Wir wollen nur deine Seele\10 – Ich weiss nicht (ob es Liebe ist).wav

Peak level 99.0 %
Track quality 100.0 %
Test CRC D2E1375D
Copy CRC D2E1375D
Accurately ripped (confidence 43) [86571A8A]
Copy OK

Track 11

Filename C:\EACrips\Die Aerzte – 1999 – Wir wollen nur deine Seele\11 – Der Graf.wav

Peak level 99.9 %
Track quality 100.0 %
Test CRC 293986EA
Copy CRC 293986EA
Accurately ripped (confidence 42) [B6DCCD29]
Copy OK

Track 12

Filename C:\EACrips\Die Aerzte – 1999 – Wir wollen nur deine Seele\12 – Rebell.wav

Peak level 99.5 %
Track quality 100.0 %
Test CRC 34F41935
Copy CRC 34F41935
Accurately ripped (confidence 41) [EF240A6B]
Copy OK

Track 13

Filename C:\EACrips\Die Aerzte – 1999 – Wir wollen nur deine Seele\13 – Zitroneneis.wav

Peak level 99.0 %
Track quality 100.0 %
Test CRC 8B397E2B
Copy CRC 8B397E2B
Accurately ripped (confidence 43) [C477B393]
Copy OK

Track 14

Filename C:\EACrips\Die Aerzte – 1999 – Wir wollen nur deine Seele\14 – Liebe und Schmerz.wav

Peak level 99.0 %
Track quality 100.0 %
Test CRC C80C5622
Copy CRC C80C5622
Accurately ripped (confidence 41) [ACE3F8E5]
Copy OK

Track 15

Filename C:\EACrips\Die Aerzte – 1999 – Wir wollen nur deine Seele\15 – Kaefer.wav

Peak level 99.3 %
Track quality 100.0 %
Test CRC 26DDA606
Copy CRC 26DDA606
Accurately ripped (confidence 42) [B29ED04E]
Copy OK

Track 16

Filename C:\EACrips\Die Aerzte – 1999 – Wir wollen nur deine Seele\16 – Meine Freunde.wav

Peak level 99.5 %
Track quality 100.0 %
Test CRC EC84075A
Copy CRC EC84075A
Accurately ripped (confidence 43) [A52F1A02]
Copy OK

Track 17

Filename C:\EACrips\Die Aerzte – 1999 – Wir wollen nur deine Seele\17 – Hey Huh (in Scheiben).wav

Peak level 99.3 %
Track quality 99.6 %
Test CRC E381CABD
Copy CRC E381CABD
Accurately ripped (confidence 41) [E4736C04]
Copy OK

Track 18

Filename C:\EACrips\Die Aerzte – 1999 – Wir wollen nur deine Seele\18 – Lady.wav

Peak level 99.0 %
Track quality 100.0 %
Test CRC 66E8BFEB
Copy CRC 66E8BFEB
Accurately ripped (confidence 41) [65401B0A]
Copy OK

Track 19

Filename C:\EACrips\Die Aerzte – 1999 – Wir wollen nur deine Seele\19 – 1,2 Lovesong.wav

Peak level 99.0 %
Track quality 99.9 %
Test CRC 5AB63DA5
Copy CRC 5AB63DA5
Accurately ripped (confidence 40) [350765F0]
Copy OK

Track 20

Filename C:\EACrips\Die Aerzte – 1999 – Wir wollen nur deine Seele\20 – Der Misanthrop.wav

Peak level 99.1 %
Track quality 100.0 %
Test CRC 2ABF0CDE
Copy CRC 2ABF0CDE
Accurately ripped (confidence 39) [7AA508DB]
Copy OK

Track 21

Filename C:\EACrips\Die Aerzte – 1999 – Wir wollen nur deine Seele\21 – Teenager Liebe.wav

Peak level 99.6 %
Track quality 100.0 %
Test CRC FF6188AD
Copy CRC FF6188AD
Accurately ripped (confidence 40) [52A73830]
Copy OK

Track 22

Filename C:\EACrips\Die Aerzte – 1999 – Wir wollen nur deine Seele\22 – Goldenes Handwerk , Punk ist….wav

Peak level 99.4 %
Track quality 100.0 %
Test CRC C1EC2003
Copy CRC C1EC2003
Accurately ripped (confidence 39) [8B7EBC82]
Copy OK

Track 23

Filename C:\EACrips\Die Aerzte – 1999 – Wir wollen nur deine Seele\23 – Schrei nach Liebe.wav

Peak level 99.5 %
Track quality 100.0 %
Test CRC B82124A1
Copy CRC B82124A1
Accurately ripped (confidence 41) [247470D1]
Copy OK

Track 24

Filename C:\EACrips\Die Aerzte – 1999 – Wir wollen nur deine Seele\24 – Der lustige Astronaut.wav

Peak level 99.6 %
Track quality 100.0 %
Test CRC C3770188
Copy CRC C3770188
Accurately ripped (confidence 40) [A3603FE7]
Copy OK

All tracks accurately ripped

No errors occurred

End of status report

Exact Audio Copy V0.99 prebeta 4 from 23. January 2008

EAC extraction logfile from 7. February 2009, 11:42

Die aerzte / Wir wollen nur deine Seele

Used drive : TOSHIBA DVD-ROM SDM2012C Adapter: 0 ID: 0

Read mode : Secure
Utilize accurate stream : Yes
Defeat audio cache : Yes
Make use of C2 pointers : No

Read offset correction : 6
Overread into Lead-In and Lead-Out : No
Fill up missing offset samples with silence : Yes
Delete leading and trailing silent blocks : No
Null samples used in CRC calculations : Yes
Used interface : Native Win32 interface for Win NT & 2000
Gap handling : Appended to previous track

Used output format : User Defined Encoder
Selected bitrate : 128 kBit/s
Quality : High
Add ID3 tag : No
Command line compressor : C:\Programme\Exact Audio Copy\Flac\flac.exe
Additional command line options : -V -8 -T “artist=%a” -T “title=%t” -T “album=%g” -T “date=%y” -T “tracknumber=%n” -T “genre=%m” %s

TOC of the extracted CD

Track | Start | Length | Start sector | End sector
———————————————————
1 | 0:00.33 | 2:31.00 | 33 | 11357
2 | 2:31.33 | 3:37.62 | 11358 | 27694
3 | 6:09.20 | 3:16.40 | 27695 | 42434
4 | 9:25.60 | 3:36.70 | 42435 | 58704
5 | 13:02.55 | 2:22.40 | 58705 | 69394
6 | 15:25.20 | 3:05.40 | 69395 | 83309
7 | 18:30.60 | 3:17.08 | 83310 | 98092
8 | 21:47.68 | 1:38.12 | 98093 | 105454
9 | 23:26.05 | 4:11.48 | 105455 | 124327
10 | 27:37.53 | 1:03.22 | 124328 | 129074
11 | 28:41.00 | 2:51.58 | 129075 | 141957
12 | 31:32.58 | 3:41.25 | 141958 | 158557
13 | 35:14.08 | 1:21.55 | 158558 | 164687
14 | 36:35.63 | 1:24.50 | 164688 | 171037
15 | 38:00.38 | 2:49.45 | 171038 | 183757
16 | 40:50.08 | 6:42.52 | 183758 | 213959
17 | 47:32.60 | 3:32.48 | 213960 | 229907
18 | 51:05.33 | 2:01.00 | 229908 | 238982
19 | 53:06.33 | 2:56.00 | 238983 | 252182
20 | 56:02.33 | 4:24.50 | 252183 | 272032
21 | 60:27.08 | 4:16.25 | 272033 | 291257
22 | 64:43.33 | 6:46.62 | 291258 | 321769
23 | 71:30.20 | 2:26.50 | 321770 | 332769

Track 1

Filename C:\EACrips\Die Aerzte – 1999 – Wir wollen nur deine Seele\01 – Super Drei.wav

Pre-gap length 0:00:02.44

Peak level 99.8 %
Track quality 100.0 %
Test CRC 396BF346
Copy CRC 396BF346
Accurately ripped (confidence 1) [FD41127B]
Copy OK

Track 2

Filename C:\EACrips\Die Aerzte – 1999 – Wir wollen nur deine Seele\02 – Vermissen, Baby.wav

Peak level 99.2 %
Track quality 99.9 %
Test CRC 0BBCDE83
Copy CRC 0BBCDE83
Accurately ripped (confidence 1) [687C38F8]
Copy OK

Track 3

Filename C:\EACrips\Die Aerzte – 1999 – Wir wollen nur deine Seele\03 – 3-Tage-Bart.wav

Peak level 99.0 %
Track quality 100.0 %
Test CRC DF32D695
Copy CRC DF32D695
Accurately ripped (confidence 1) [6BB378DC]
Copy OK

Track 4

Filename C:\EACrips\Die Aerzte – 1999 – Wir wollen nur deine Seele\04 – Vokuhila.wav

Peak level 99.0 %
Track quality 100.0 %
Test CRC D75242FF
Copy CRC D75242FF
Accurately ripped (confidence 1) [565B3B0B]
Copy OK

Track 5

Filename C:\EACrips\Die Aerzte – 1999 – Wir wollen nur deine Seele\05 – Sommer, Palmen, Sonnenschein.wav

Peak level 99.6 %
Track quality 100.0 %
Test CRC 50A08955
Copy CRC 50A08955
Accurately ripped (confidence 1) [15F4DC39]
Copy OK

Track 6

Filename C:\EACrips\Die Aerzte – 1999 – Wir wollen nur deine Seele\06 – Ansage.wav

Peak level 98.9 %
Track quality 100.0 %
Test CRC 61F7910D
Copy CRC 61F7910D
Accurately ripped (confidence 1) [9077F150]
Copy OK

Track 7

Filename C:\EACrips\Die Aerzte – 1999 – Wir wollen nur deine Seele\07 – Nie wieder Krieg, nie mehr Las Vegas!.wav

Peak level 99.0 %
Track quality 100.0 %
Test CRC A9D1B132
Copy CRC A9D1B132
Accurately ripped (confidence 1) [246EA29E]
Copy OK

Track 8

Filename C:\EACrips\Die Aerzte – 1999 – Wir wollen nur deine Seele\08 – Deutschrockgirl.wav

Peak level 99.3 %
Track quality 100.0 %
Test CRC 86045126
Copy CRC 86045126
Accurately ripped (confidence 1) [B8BBBA6D]
Copy OK

Track 9

Filename C:\EACrips\Die Aerzte – 1999 – Wir wollen nur deine Seele\09 – Die traurige Ballade von Susi Spakowski.wav

Peak level 99.0 %
Track quality 100.0 %
Test CRC 0E96FC4B
Copy CRC 0E96FC4B
Accurately ripped (confidence 1) [48CF7A17]
Copy OK

Track 10

Filename C:\EACrips\Die Aerzte – 1999 – Wir wollen nur deine Seele\10 – Dauerwelle vs. Minipli.wav

Peak level 99.4 %
Track quality 100.0 %
Test CRC 4B1A48E8
Copy CRC 4B1A48E8
Accurately ripped (confidence 1) [E07AF92A]
Copy OK

Track 11

Filename C:\EACrips\Die Aerzte – 1999 – Wir wollen nur deine Seele\11 – Kopfueber in die Hoelle , Revolution.wav

Peak level 99.0 %
Track quality 100.0 %
Test CRC 294429E0
Copy CRC 294429E0
Accurately ripped (confidence 1) [13DC3E56]
Copy OK

Track 12

Filename C:\EACrips\Die Aerzte – 1999 – Wir wollen nur deine Seele\12 – Friedenspanzer.wav

Peak level 99.2 %
Track quality 100.0 %
Test CRC 3B01CF33
Copy CRC 3B01CF33
Accurately ripped (confidence 1) [B964C2B6]
Copy OK

Track 13

Filename C:\EACrips\Die Aerzte – 1999 – Wir wollen nur deine Seele\13 – Die Allerschuerfste.wav

Peak level 99.0 %
Track quality 100.0 %
Test CRC 9A567E49
Copy CRC 9A567E49
Accurately ripped (confidence 1) [5BE3A65F]
Copy OK

Track 14

Filename C:\EACrips\Die Aerzte – 1999 – Wir wollen nur deine Seele\14 – BGS.wav

Peak level 99.3 %
Track quality 99.8 %
Test CRC 559B49A0
Copy CRC 559B49A0
Accurately ripped (confidence 1) [C91052FC]
Copy OK

Track 15

Filename C:\EACrips\Die Aerzte – 1999 – Wir wollen nur deine Seele\15 – Kopfhaut.wav

Peak level 99.1 %
Track quality 100.0 %
Test CRC 4F2B8246
Copy CRC 4F2B8246
Accurately ripped (confidence 1) [6B5326C0]
Copy OK

Track 16

Filename C:\EACrips\Die Aerzte – 1999 – Wir wollen nur deine Seele\16 – Omaboy.wav

Peak level 100.0 %
Track quality 100.0 %
Test CRC A4DF7115
Copy CRC A4DF7115
Accurately ripped (confidence 1) [EA5E4BC1]
Copy OK

Track 17

Filename C:\EACrips\Die Aerzte – 1999 – Wir wollen nur deine Seele\17 – Fuer immer.wav

Peak level 99.0 %
Track quality 100.0 %
Test CRC 0506D26A
Copy CRC 0506D26A
Accurately ripped (confidence 1) [4E8A8190]
Copy OK

Track 18

Filename C:\EACrips\Die Aerzte – 1999 – Wir wollen nur deine Seele\18 – Ekelpack.wav

Peak level 99.0 %
Track quality 100.0 %
Test CRC B6391DEC
Copy CRC B6391DEC
Accurately ripped (confidence 1) [58433DAB]
Copy OK

Track 19

Filename C:\EACrips\Die Aerzte – 1999 – Wir wollen nur deine Seele\19 – Ein Lied ueber Zensur.wav

Peak level 99.6 %
Track quality 99.9 %
Test CRC DED23E7D
Copy CRC DED23E7D
Accurately ripped (confidence 1) [B78B927B]
Copy OK

Track 20

Filename C:\EACrips\Die Aerzte – 1999 – Wir wollen nur deine Seele\20 – Mach die Augen zu.wav

Peak level 99.7 %
Track quality 99.9 %
Test CRC 29DF749F
Copy CRC 29DF749F
Accurately ripped (confidence 1) [F098D16A]
Copy OK

Track 21

Filename C:\EACrips\Die Aerzte – 1999 – Wir wollen nur deine Seele\21 – Maenner sind Schweine.wav

Peak level 99.5 %
Track quality 99.9 %
Test CRC 656D0BF3
Copy CRC 656D0BF3
Accurately ripped (confidence 1) [37C2EE53]
Copy OK

Track 22

Filename C:\EACrips\Die Aerzte – 1999 – Wir wollen nur deine Seele\22 – Elke.wav

Peak level 99.4 %
Track quality 100.0 %
Test CRC 49CAF065
Copy CRC 49CAF065
Accurately ripped (confidence 1) [0C89AFC6]
Copy OK

Track 23

Filename C:\EACrips\Die Aerzte – 1999 – Wir wollen nur deine Seele\23 – Gute Nacht.wav

Peak level 99.3 %
Track quality 99.2 %
Test CRC 52BA70FD
Copy CRC 52BA70FD
Accurately ripped (confidence 1) [8D770E0D]
Copy OK

All tracks accurately ripped

No errors occurred

End of status report

Exact Audio Copy V0.99 prebeta 4 from 23. January 2008

EAC extraction logfile from 7. February 2009, 15:36

Die Ärzte / Wir wollen nur deine Seele

Used drive : TOSHIBA DVD-ROM SDM2012C Adapter: 0 ID: 0

Read mode : Secure
Utilize accurate stream : Yes
Defeat audio cache : Yes
Make use of C2 pointers : No

Read offset correction : 6
Overread into Lead-In and Lead-Out : No
Fill up missing offset samples with silence : Yes
Delete leading and trailing silent blocks : No
Null samples used in CRC calculations : Yes
Used interface : Native Win32 interface for Win NT & 2000
Gap handling : Appended to previous track

Used output format : User Defined Encoder
Selected bitrate : 128 kBit/s
Quality : High
Add ID3 tag : No
Command line compressor : C:\Programme\Exact Audio Copy\Flac\flac.exe
Additional command line options : -V -8 -T “artist=%a” -T “title=%t” -T “album=%g” -T “date=%y” -T “tracknumber=%n” -T “genre=%m” %s

TOC of the extracted CD

Track | Start | Length | Start sector | End sector
———————————————————
1 | 0:00.00 | 20:34.45 | 0 | 92594

Track 1

Filename C:\EACrips\Die Aerzte – 1999 – Wir wollen nur deine Seele\01 – Sprueche 2.wav

Pre-gap length 0:00:02.00

Peak level 99.0 %
Track quality 100.0 %
Test CRC 7404BC32
Copy CRC 7404BC32
Accurately ripped (confidence 3) [C74051AE]
Copy OK

All tracks accurately ripped

No errors occurred

End of status report

——————————————-
CUEs:
REM ACCURATERIPID 003b0964-041391d2-63115918
REM DATE 1999
REM DISCID 63115918
REM COMMENT “ExactAudioCopy v0.99pb4”
PERFORMER “Die Arzte”
TITLE “Wir wollen nur deine Seele – CD1 – No sleep ’til Viehauktionshalle Oldenburg”
FILE “01 – Ein Lied fuer dich.flac” WAVE
TRACK 01 AUDIO
TITLE “Ein Lied fur dich”
PERFORMER “Die Arzte”
PREGAP 00:02:42
INDEX 01 00:00:00
FILE “02 – Schunder-Song.flac” WAVE
TRACK 02 AUDIO
TITLE “Schunder-Song”
PERFORMER “Die Arzte”
INDEX 01 00:00:00
FILE “03 – Angeber.flac” WAVE
TRACK 03 AUDIO
TITLE “Angeber”
PERFORMER “Die Arzte”
INDEX 01 00:00:00
FILE “04 – Begruessung.flac” WAVE
TRACK 04 AUDIO
TITLE “Begru?ung”
PERFORMER “Die Arzte”
INDEX 01 00:00:00
FILE “05 – Party stinkt.flac” WAVE
TRACK 05 AUDIO
TITLE “Party stinkt”
PERFORMER “Die Arzte”
INDEX 01 00:00:00
FILE “06 – Ich bin reich.flac” WAVE
TRACK 06 AUDIO
TITLE “Ich bin reich”
PERFORMER “Die Arzte”
INDEX 01 00:00:00
FILE “07 – Geh mit mir.flac” WAVE
TRACK 07 AUDIO
TITLE “Geh mit mir”
PERFORMER “Die Arzte”
INDEX 01 00:00:00
FILE “08 – Langweilig.flac” WAVE
TRACK 08 AUDIO
TITLE “Langweilig”
PERFORMER “Die Arzte”
INDEX 01 00:00:00
FILE “09 – Ignorama.flac” WAVE
TRACK 09 AUDIO
TITLE “Ignorama”
PERFORMER “Die Arzte”
INDEX 01 00:00:00
FILE “10 – Ich weiss nicht (ob es Liebe ist).flac” WAVE
TRACK 10 AUDIO
TITLE “Ich wei? nicht (ob es Liebe ist)”
PERFORMER “Die Arzte”
INDEX 01 00:00:00
FILE “11 – Der Graf.flac” WAVE
TRACK 11 AUDIO
TITLE “Der Graf”
PERFORMER “Die Arzte”
INDEX 01 00:00:00
FILE “12 – Rebell.flac” WAVE
TRACK 12 AUDIO
TITLE “Rebell”
PERFORMER “Die Arzte”
INDEX 01 00:00:00
FILE “13 – Zitroneneis.flac” WAVE
TRACK 13 AUDIO
TITLE “Zitroneneis”
PERFORMER “Die Arzte”
INDEX 01 00:00:00
FILE “14 – Liebe und Schmerz.flac” WAVE
TRACK 14 AUDIO
TITLE “Liebe und Schmerz”
PERFORMER “Die Arzte”
INDEX 01 00:00:00
FILE “15 – Kaefer.flac” WAVE
TRACK 15 AUDIO
TITLE “Kafer”
PERFORMER “Die Arzte”
INDEX 01 00:00:00
FILE “16 – Meine Freunde.flac” WAVE
TRACK 16 AUDIO
TITLE “Meine Freunde”
PERFORMER “Die Arzte”
INDEX 01 00:00:00
FILE “17 – Hey Huh (in Scheiben).flac” WAVE
TRACK 17 AUDIO
TITLE “Hey huh (in Scheiben)”
PERFORMER “Die Arzte”
INDEX 01 00:00:00
FILE “18 – Lady.flac” WAVE
TRACK 18 AUDIO
TITLE “Lady”
PERFORMER “Die Arzte”
INDEX 01 00:00:00
FILE “19 – 1,2 Lovesong.flac” WAVE
TRACK 19 AUDIO
TITLE “? Lovesong”
PERFORMER “Die Arzte”
INDEX 01 00:00:00
FILE “20 – Der Misanthrop.flac” WAVE
TRACK 20 AUDIO
TITLE “Der Misanthrop”
PERFORMER “Die Arzte”
INDEX 01 00:00:00
FILE “21 – Teenager Liebe.flac” WAVE
TRACK 21 AUDIO
TITLE “Teenager Liebe”
PERFORMER “Die Arzte”
INDEX 01 00:00:00
FILE “22 – Goldenes Handwerk , Punk ist….flac” WAVE
TRACK 22 AUDIO
TITLE “Goldenes Handwerk / Punk ist…”
PERFORMER “Die Arzte”
INDEX 01 00:00:00
FILE “23 – Schrei nach Liebe.flac” WAVE
TRACK 23 AUDIO
TITLE “Schrei nach Liebe”
PERFORMER “Die Arzte”
INDEX 01 00:00:00
FILE “24 – Der lustige Astronaut.flac” WAVE
TRACK 24 AUDIO
TITLE “Der lustige Astronaut”
PERFORMER “Die Arzte”
INDEX 01 00:00:00

REM ACCURATERIPID 0038cdfb-03b84a07-61115417
REM DATE 1999
REM DISCID 61115417
REM COMMENT “ExactAudioCopy v0.99pb4”
PERFORMER “Die Arzte”
TITLE “Wir wollen nur deine Seele – CD2 – Halt’s Maul und spiel!”
FILE “01 – Super Drei.flac” WAVE
TRACK 01 AUDIO
TITLE “Super Drei”
PERFORMER “Die Arzte”
PREGAP 00:00:33
INDEX 01 00:00:00
FILE “02 – Vermissen, Baby.flac” WAVE
TRACK 02 AUDIO
TITLE “Vermissen, Baby”
PERFORMER “Die Arzte”
INDEX 01 00:00:00
FILE “03 – 3-Tage-Bart.flac” WAVE
TRACK 03 AUDIO
TITLE “3-Tage-Bart”
PERFORMER “Die Arzte”
INDEX 01 00:00:00
FILE “04 – Vokuhila.flac” WAVE
TRACK 04 AUDIO
TITLE “Vokuhila”
PERFORMER “Die Arzte”
INDEX 01 00:00:00
FILE “05 – Sommer, Palmen, Sonnenschein.flac” WAVE
TRACK 05 AUDIO
TITLE “Sommer, Palmen, Sonnenschein”
PERFORMER “Die Arzte”
INDEX 01 00:00:00
FILE “06 – Ansage.flac” WAVE
TRACK 06 AUDIO
TITLE “Ansage”
PERFORMER “Die Arzte”
INDEX 01 00:00:00
FILE “07 – Nie wieder Krieg, nie mehr Las Vegas!.flac” WAVE
TRACK 07 AUDIO
TITLE “Nie wieder Krieg, nie mehr Las Vegas!”
PERFORMER “Die Arzte”
INDEX 01 00:00:00
FILE “08 – Deutschrockgirl.flac” WAVE
TRACK 08 AUDIO
TITLE “Deutschrockgirl”
PERFORMER “Die Arzte”
INDEX 01 00:00:00
FILE “09 – Die traurige Ballade von Susi Spakowski.flac” WAVE
TRACK 09 AUDIO
TITLE “Die traurige Ballade von Susi Spakowski”
PERFORMER “Die Arzte”
INDEX 01 00:00:00
FILE “10 – Dauerwelle vs. Minipli.flac” WAVE
TRACK 10 AUDIO
TITLE “Dauerwelle vs. Minipli”
PERFORMER “Die Arzte”
INDEX 01 00:00:00
FILE “11 – Kopfueber in die Hoelle , Revolution.flac” WAVE
TRACK 11 AUDIO
TITLE “Kopfuber in die Holle / Revolution”
PERFORMER “Die Arzte”
INDEX 01 00:00:00
FILE “12 – Friedenspanzer.flac” WAVE
TRACK 12 AUDIO
TITLE “Friedenspanzer”
PERFORMER “Die Arzte”
INDEX 01 00:00:00
FILE “13 – Die Allerschuerfste.flac” WAVE
TRACK 13 AUDIO
TITLE “Die Allerschurfste”
PERFORMER “Die Arzte”
INDEX 01 00:00:00
FILE “14 – BGS.flac” WAVE
TRACK 14 AUDIO
TITLE “BGS”
PERFORMER “Die Arzte”
INDEX 01 00:00:00
FILE “15 – Kopfhaut.flac” WAVE
TRACK 15 AUDIO
TITLE “Kopfhaut”
PERFORMER “Die Arzte”
INDEX 01 00:00:00
FILE “16 – Omaboy.flac” WAVE
TRACK 16 AUDIO
TITLE “Omaboy”
PERFORMER “Die Arzte”
INDEX 01 00:00:00
FILE “17 – Fuer immer.flac” WAVE
TRACK 17 AUDIO
TITLE “Fur immer”
PERFORMER “Die Arzte”
INDEX 01 00:00:00
FILE “18 – Ekelpack.flac” WAVE
TRACK 18 AUDIO
TITLE “Ekelpack”
PERFORMER “Die Arzte”
INDEX 01 00:00:00
FILE “19 – Ein Lied ueber Zensur.flac” WAVE
TRACK 19 AUDIO
TITLE “Ein Lied uber Zensur”
PERFORMER “Die Arzte”
INDEX 01 00:00:00
FILE “20 – Mach die Augen zu.flac” WAVE
TRACK 20 AUDIO
TITLE “Mach die Augen zu”
PERFORMER “Die Arzte”
INDEX 01 00:00:00
FILE “21 – Maenner sind Schweine.flac” WAVE
TRACK 21 AUDIO
TITLE “Manner sind Schweine”
PERFORMER “Die Arzte”
INDEX 01 00:00:00
FILE “22 – Elke.flac” WAVE
TRACK 22 AUDIO
TITLE “Elke”
PERFORMER “Die Arzte”
INDEX 01 00:00:00
FILE “23 – Gute Nacht.flac” WAVE
TRACK 23 AUDIO
TITLE “Gute Nacht”
PERFORMER “Die Arzte”
INDEX 01 00:00:00

REM ACCURATERIPID 000169b3-0002d367-0204d201
REM DATE 1999
REM DISCID 0204D201
REM COMMENT “ExactAudioCopy v0.99pb4”
PERFORMER “Die Arzte”
TITLE “Wir wollen nur deine Seele – CD3 – Invasion der Vernunft”
FILE “01 – Sprueche 2.flac” WAVE
TRACK 01 AUDIO
TITLE “Spruche II”
PERFORMER “Die Arzte”
INDEX 01 00:00:00


Leave a Reply

Your email address will not be published. Required fields are marked *

This site uses Akismet to reduce spam. Learn how your comment data is processed.