Die Ärzte – Satanische Pferde




Artist: Die Ärzte
Year: 1999
Genre: Punk
Notes: Discogs
Add. Notes:
Cover incl.: No
Encoder: FLAC
Bitrate: ~900 kBit/s (44.1 kHz/16 Bit/s)
Log & Cue incl.: Yes
Size: 502 MB
Password: “slam” (without ” “)


All Downloads/Hosters are compatible

Download 1
KatFile.com
Rapidgator.net
Turbobit.net
FileFactory.com
Download 2
KatFile.com
Rapidgator.net
Turbobit.net
FileFactory.com

Tracklist:

Radio brennt
Ausserirdische
Ohne dich
Alleine in der Nacht
Sweet sweet Gwendoline
Madonnas Dickdarm
Helmut K.
Buddy Holly’s Brille
Ich ess Blumen
Mysteryland
2000 Mädchen
Du willst mich küssen
Wie am ersten Tag
Dos Corazones
Popstar
Frank’nstein
Sie kratzt
Vollmilch
Zu spät
Männer

EAC-Log, CUE-Sheed & NFO:

Click to open spoiler
Exact Audio Copy V0.99 prebeta 5 from 4. May 2009

EAC extraction logfile from 15. September 2009, 14:51

Die Ärzte / Satanische Pferde

Used drive : TSSTcorpCDDVDW SH-S203P Adapter: 0 ID: 0

Read mode : Secure
Utilize accurate stream : Yes
Defeat audio cache : Yes
Make use of C2 pointers : No

Read offset correction : 6
Overread into Lead-In and Lead-Out : No
Fill up missing offset samples with silence : Yes
Delete leading and trailing silent blocks : No
Null samples used in CRC calculations : Yes
Used interface : Native Win32 interface for Win NT & 2000
Gap handling : Appended to previous track

Used output format : User Defined Encoder
Selected bitrate : 320 kBit/s
Quality : High
Add ID3 tag : No
Command line compressor : C:\Program Files (x86)\Exact Audio Copy\Flac\flac.exe
Additional command line options : -V -8 -T “artist=%a” -T “title=%t” -T “album=%g” -T “date=%y” -T “tracknumber=%n” -T “genre=%m” %s

TOC of the extracted CD

Track | Start | Length | Start sector | End sector
———————————————————
1 | 0:00.00 | 2:46.61 | 0 | 12510
2 | 2:46.61 | 2:22.42 | 12511 | 23202
3 | 5:09.28 | 2:16.32 | 23203 | 33434
4 | 7:25.60 | 2:38.20 | 33435 | 45304
5 | 10:04.05 | 2:30.07 | 45305 | 56561
6 | 12:34.12 | 2:11.20 | 56562 | 66406
7 | 14:45.32 | 2:26.40 | 66407 | 77396
8 | 17:11.72 | 4:06.10 | 77397 | 95856
9 | 21:18.07 | 3:33.31 | 95857 | 111862
10 | 24:51.38 | 3:34.15 | 111863 | 127927
11 | 28:25.53 | 4:51.21 | 127928 | 149773
12 | 33:16.74 | 3:59.50 | 149774 | 167748
13 | 37:16.49 | 3:02.63 | 167749 | 181461
14 | 40:19.37 | 3:25.15 | 181462 | 196851
15 | 43:44.52 | 3:06.29 | 196852 | 210830
16 | 46:51.06 | 2:27.35 | 210831 | 221890
17 | 49:18.41 | 2:36.06 | 221891 | 233596
18 | 51:54.47 | 3:19.37 | 233597 | 248558
19 | 55:14.09 | 3:40.05 | 248559 | 265063
20 | 58:54.14 | 4:32.34 | 265064 | 285497
21 | 63:26.48 | 8:33.28 | 285498 | 324000

Track 1

Filename D:\EAC\Die Ärzte – – Satanische Pferde\01 – Radio Brennt.wav

Pre-gap length 0:00:02.00

Peak level 94.7 %
Track quality 100.0 %
Test CRC 76DE45EB
Copy CRC 76DE45EB
Cannot be verified as accurate (confidence 3) [76314F9B], AccurateRip returned [A4C33712]
Copy OK

Track 2

Filename D:\EAC\Die Ärzte – – Satanische Pferde\02 – Ausserirdische.wav

Pre-gap length 0:00:00.46

Peak level 94.9 %
Track quality 100.0 %
Test CRC 4018BE32
Copy CRC 4018BE32
Cannot be verified as accurate (confidence 3) [B925C11E], AccurateRip returned [A9312C39]
Copy OK

Track 3

Filename D:\EAC\Die Ärzte – – Satanische Pferde\03 – Ohne Dich.wav

Pre-gap length 0:00:00.46

Peak level 94.1 %
Track quality 100.0 %
Test CRC 76DBECC4
Copy CRC 76DBECC4
Accurately ripped (confidence 2) [9A4C8385]
Copy OK

Track 4

Filename D:\EAC\Die Ärzte – – Satanische Pferde\04 – Alleine In Der Nacht.wav

Pre-gap length 0:00:00.46

Peak level 93.9 %
Track quality 100.0 %
Test CRC 4F977A74
Copy CRC 4F977A74
Cannot be verified as accurate (confidence 3) [C163C2EF], AccurateRip returned [CF389D75]
Copy OK

Track 5

Filename D:\EAC\Die Ärzte – – Satanische Pferde\05 – Sweet Sweet Gwendoline.wav

Pre-gap length 0:00:00.46

Peak level 90.1 %
Track quality 99.9 %
Test CRC EBFD4B0F
Copy CRC EBFD4B0F
Accurately ripped (confidence 2) [8951D6C5]
Copy OK

Track 6

Filename D:\EAC\Die Ärzte – – Satanische Pferde\06 – Madonnas Dickdarm.wav

Pre-gap length 0:00:00.46

Peak level 89.1 %
Track quality 100.0 %
Test CRC BBDC4563
Copy CRC BBDC4563
Accurately ripped (confidence 2) [EB96024E]
Copy OK

Track 7

Filename D:\EAC\Die Ärzte – – Satanische Pferde\07 – Helmut K..wav

Pre-gap length 0:00:00.46

Peak level 95.5 %
Track quality 100.0 %
Test CRC E1F35C5A
Copy CRC E1F35C5A
Accurately ripped (confidence 2) [03B744F5]
Copy OK

Track 8

Filename D:\EAC\Die Ärzte – – Satanische Pferde\08 – Buddy Holly’s Brille.wav

Pre-gap length 0:00:00.46

Peak level 87.2 %
Track quality 100.0 %
Test CRC 0E4381AF
Copy CRC 0E4381AF
Accurately ripped (confidence 2) [ABA7A44D]
Copy OK

Track 9

Filename D:\EAC\Die Ärzte – – Satanische Pferde\09 – Ich Ess Blumen.wav

Pre-gap length 0:00:00.46

Peak level 88.3 %
Track quality 100.0 %
Test CRC CDFBCE53
Copy CRC CDFBCE53
Accurately ripped (confidence 2) [FB448793]
Copy OK

Track 10

Filename D:\EAC\Die Ärzte – – Satanische Pferde\10 – Mysteryland.wav

Pre-gap length 0:00:00.46

Peak level 95.3 %
Track quality 99.9 %
Test CRC FFE82DCC
Copy CRC FFE82DCC
Accurately ripped (confidence 2) [81B07710]
Copy OK

Track 11

Filename D:\EAC\Die Ärzte – – Satanische Pferde\11 – 2000 Mädchen.wav

Pre-gap length 0:00:00.46

Peak level 96.1 %
Track quality 100.0 %
Test CRC CF3F6150
Copy CRC CF3F6150
Accurately ripped (confidence 2) [1300DB28]
Copy OK

Track 12

Filename D:\EAC\Die Ärzte – – Satanische Pferde\12 – Du Willst Mich Küssen.wav

Pre-gap length 0:00:00.46

Peak level 96.5 %
Track quality 100.0 %
Test CRC 2857C18F
Copy CRC 2857C18F
Accurately ripped (confidence 2) [7D74BE21]
Copy OK

Track 13

Filename D:\EAC\Die Ärzte – – Satanische Pferde\13 – Wie Am Ersten Tag.wav

Pre-gap length 0:00:00.46

Peak level 94.3 %
Track quality 100.0 %
Test CRC 564F93A1
Copy CRC 564F93A1
Accurately ripped (confidence 2) [D05C9891]
Copy OK

Track 14

Filename D:\EAC\Die Ärzte – – Satanische Pferde\14 – Dos Coranzores.wav

Pre-gap length 0:00:00.46

Peak level 95.7 %
Track quality 99.9 %
Test CRC 1E5ACDF4
Copy CRC 1E5ACDF4
Accurately ripped (confidence 2) [534D2A77]
Copy OK

Track 15

Filename D:\EAC\Die Ärzte – – Satanische Pferde\15 – Popstar.wav

Pre-gap length 0:00:00.46

Peak level 96.7 %
Track quality 100.0 %
Test CRC 10E297DC
Copy CRC 10E297DC
Accurately ripped (confidence 2) [E7E54DDA]
Copy OK

Track 16

Filename D:\EAC\Die Ärzte – – Satanische Pferde\16 – Frank’nstein.wav

Pre-gap length 0:00:00.46

Peak level 89.6 %
Track quality 100.0 %
Test CRC FB671320
Copy CRC FB671320
Accurately ripped (confidence 2) [41D33C58]
Copy OK

Track 17

Filename D:\EAC\Die Ärzte – – Satanische Pferde\17 – Sie Kratzt.wav

Pre-gap length 0:00:00.46

Peak level 89.4 %
Track quality 99.9 %
Test CRC 729DDDFA
Copy CRC 729DDDFA
Accurately ripped (confidence 2) [6DD40AEB]
Copy OK

Track 18

Filename D:\EAC\Die Ärzte – – Satanische Pferde\18 – Vollmilch.wav

Pre-gap length 0:00:00.46

Peak level 87.7 %
Track quality 100.0 %
Test CRC F44A97F5
Copy CRC F44A97F5
Accurately ripped (confidence 2) [4E9EA948]
Copy OK

Track 19

Filename D:\EAC\Die Ärzte – – Satanische Pferde\19 – Ist Das Alles.wav

Pre-gap length 0:00:00.46

Peak level 91.3 %
Track quality 100.0 %
Test CRC 272D4999
Copy CRC 272D4999
Accurately ripped (confidence 2) [67D8FD0C]
Copy OK

Track 20

Filename D:\EAC\Die Ärzte – – Satanische Pferde\20 – Zu Spät.wav

Pre-gap length 0:00:00.46

Peak level 85.3 %
Track quality 100.0 %
Test CRC 6BC46E78
Copy CRC 6BC46E78
Accurately ripped (confidence 2) [AD9DD30F]
Copy OK

Track 21

Filename D:\EAC\Die Ärzte – – Satanische Pferde\21 – Schwanz Ab!.wav

Pre-gap length 0:00:00.46

Peak level 94.8 %
Track quality 99.9 %
Test CRC F2540DF1
Copy CRC F2540DF1
Accurately ripped (confidence 2) [A5942987]
Copy OK

18 track(s) accurately ripped
3 track(s) could not be verified as accurate

Some tracks could not be verified as accurate

No errors occurred

End of status report

REM ACCURATERIPID 002fd902-02ef46e8-2b10e015
PERFORMER “Die Arzte”
TITLE “Satanische Pferde”
FILE “01 – Radio Brennt.flac” WAVE
TRACK 01 AUDIO
TITLE “Radio Brennt”
PERFORMER “Die Arzte”
INDEX 01 00:00:00
TRACK 02 AUDIO
TITLE “Ausserirdische”
PERFORMER “Die Arzte”
INDEX 00 02:46:26
FILE “02 – Ausserirdische.flac” WAVE
INDEX 01 00:00:00
TRACK 03 AUDIO
TITLE “Ohne Dich”
PERFORMER “Die Arzte”
INDEX 00 02:22:07
FILE “03 – Ohne Dich.flac” WAVE
INDEX 01 00:00:00
TRACK 04 AUDIO
TITLE “Alleine In Der Nacht”
PERFORMER “Die Arzte”
INDEX 00 02:15:72
FILE “04 – Alleine In Der Nacht.flac” WAVE
INDEX 01 00:00:00
TRACK 05 AUDIO
TITLE “Sweet Sweet Gwendoline”
PERFORMER “Die Arzte”
INDEX 00 02:37:60
FILE “05 – Sweet Sweet Gwendoline.flac” WAVE
INDEX 01 00:00:00
TRACK 06 AUDIO
TITLE “Madonnas Dickdarm”
PERFORMER “Die Arzte”
INDEX 00 02:29:47
FILE “06 – Madonnas Dickdarm.flac” WAVE
INDEX 01 00:00:00
TRACK 07 AUDIO
TITLE “Helmut K.”
PERFORMER “Die Arzte”
INDEX 00 02:10:60
FILE “07 – Helmut K..flac” WAVE
INDEX 01 00:00:00
TRACK 08 AUDIO
TITLE “Buddy Holly’s Brille”
PERFORMER “Die Arzte”
INDEX 00 02:26:05
FILE “08 – Buddy Holly’s Brille.flac” WAVE
INDEX 01 00:00:00
TRACK 09 AUDIO
TITLE “Ich Ess Blumen”
PERFORMER “Die Arzte”
INDEX 00 04:05:50
FILE “09 – Ich Ess Blumen.flac” WAVE
INDEX 01 00:00:00
TRACK 10 AUDIO
TITLE “Mysteryland”
PERFORMER “Die Arzte”
INDEX 00 03:32:71
FILE “10 – Mysteryland.flac” WAVE
INDEX 01 00:00:00
TRACK 11 AUDIO
TITLE “2000 Madchen”
PERFORMER “Die Arzte”
INDEX 00 03:33:55
FILE “11 – 2000 Madchen.flac” WAVE
INDEX 01 00:00:00
TRACK 12 AUDIO
TITLE “Du Willst Mich Kussen”
PERFORMER “Die Arzte”
INDEX 00 04:50:61
FILE “12 – Du Willst Mich Kussen.flac” WAVE
INDEX 01 00:00:00
TRACK 13 AUDIO
TITLE “Wie Am Ersten Tag”
PERFORMER “Die Arzte”
INDEX 00 03:59:15
FILE “13 – Wie Am Ersten Tag.flac” WAVE
INDEX 01 00:00:00
TRACK 14 AUDIO
TITLE “Dos Coranzores”
PERFORMER “Die Arzte”
INDEX 00 03:02:28
FILE “14 – Dos Coranzores.flac” WAVE
INDEX 01 00:00:00
TRACK 15 AUDIO
TITLE “Popstar”
PERFORMER “Die Arzte”
INDEX 00 03:24:55
FILE “15 – Popstar.flac” WAVE
INDEX 01 00:00:00
TRACK 16 AUDIO
TITLE “Frank’nstein”
PERFORMER “Die Arzte”
INDEX 00 03:05:69
FILE “16 – Frank’nstein.flac” WAVE
INDEX 01 00:00:00
TRACK 17 AUDIO
TITLE “Sie Kratzt”
PERFORMER “Die Arzte”
INDEX 00 02:27:00
FILE “17 – Sie Kratzt.flac” WAVE
INDEX 01 00:00:00
TRACK 18 AUDIO
TITLE “Vollmilch”
PERFORMER “Die Arzte”
INDEX 00 02:35:46
FILE “18 – Vollmilch.flac” WAVE
INDEX 01 00:00:00
TRACK 19 AUDIO
TITLE “Ist Das Alles”
PERFORMER “Die Arzte”
INDEX 00 03:19:02
FILE “19 – Ist Das Alles.flac” WAVE
INDEX 01 00:00:00
TRACK 20 AUDIO
TITLE “Zu Spat”
PERFORMER “Die Arzte”
INDEX 00 03:39:45
FILE “20 – Zu Spat.flac” WAVE
INDEX 01 00:00:00
TRACK 21 AUDIO
TITLE “Schwanz Ab!”
PERFORMER “Die Arzte”
INDEX 00 04:31:74
FILE “21 – Schwanz Ab!.flac” WAVE
INDEX 01 00:00:00


Leave a Reply

Your email address will not be published. Required fields are marked *

This site uses Akismet to reduce spam. Learn how your comment data is processed.