Die Ärzte – Runter mit den Spendierhosen, Unsichtbarer!




No Cover available

Artist: Die Ärzte
Year: 2000
Genre: Punk
Notes: Discogs
Add. Notes:
Watch Songs on: YouTube
Cover incl.: Yes
Encoder: FLAC
Bitrate: ~1000 kBit/s (44.1 kHz/16 Bit/s)
Log & Cue incl.: Yes
Size: 1387,21 MB
Password: “slam” (without ” “)


All Downloads/Hosters are compatible

Download 1
KatFile.com
Turbobit.net
Rapidgator.net
Turbobit.net
Download 2
KatFile.com
Turbobit.net
Rapidgator.net
Turbobit.net

Tracklist:

1 - Wie Es Geht - 3:58
2 - Geld - 3:44
3 - Gib Mir Zeit - 2:08
4 - Dir - 3:39
5 - Mondo Bondage - 3:01
6 - Onprangering - 3:53
7 - Leichenhalle - 3:51
8 - Der Optimist - 2:36
9 - Alles So Einfach - 4:25
10 - N 48.3 - 2:51
11 - Manchmal Haben Frauen ... - 4:13
12 - Las Vegas - 1:49
13 - Yoko Ono - 0:30
14 - Rock Rendezvous - 4:08
15 - Baby - 4:32
16 - Kann Es Sein? - 2:47
17 - Ein Sommer Nur Für Mich - 2:51
18 - Rock'n'Roll Übermensch - 4:47
19 - Herrliche Jahre - 3:52

EAC-Log, CUE-Sheed & NFO:

Click to open spoiler
Exact Audio Copy V0.99 prebeta 5 from 4. May 2009

EAC extraction logfile from 19. September 2010, 13:11

Die Arzte / Runter mit den Spendierhosen, Unsichtbarer!

Used drive : HL-DT-STDVDRAM GSA-4040B Adapter: 0 ID: 1

Read mode : Secure
Utilize accurate stream : Yes
Defeat audio cache : Yes
Make use of C2 pointers : No

Read offset correction : 667
Overread into Lead-In and Lead-Out : No
Fill up missing offset samples with silence : Yes
Delete leading and trailing silent blocks : No
Null samples used in CRC calculations : Yes
Used interface : Native Win32 interface for Win NT & 2000
Gap handling : Appended to previous track

Used output format : User Defined Encoder
Selected bitrate : 1024 kBit/s
Quality : High
Add ID3 tag : No
Command line compressor : C:\Program Files\FLAC\flac.exe
Additional command line options : -8 -V -T “ARTIST=%a” -T “TITLE=%t” -T “ALBUM=%g” -T “DATE=%y” -T “TRACKNUMBER=%n” -T “GENRE=%m” -T “COMMENT=EAC FLAC -8” %s

TOC of the extracted CD

Track | Start | Length | Start sector | End sector
———————————————————
1 | 0:00.32 | 4:00.03 | 32 | 18034
2 | 4:00.35 | 3:45.05 | 18035 | 34914
3 | 7:45.40 | 2:10.20 | 34915 | 44684
4 | 9:55.60 | 3:39.20 | 44685 | 61129
5 | 13:35.05 | 3:02.30 | 61130 | 74809
6 | 16:37.35 | 3:55.15 | 74810 | 92449
7 | 20:32.50 | 3:53.40 | 92450 | 109964
8 | 24:26.15 | 2:38.10 | 109965 | 121824
9 | 27:04.25 | 4:27.10 | 121825 | 141859
10 | 31:31.35 | 2:52.35 | 141860 | 154794
11 | 34:23.70 | 4:12.52 | 154795 | 173746
12 | 38:36.47 | 1:48.60 | 173747 | 181906
13 | 40:25.32 | 0:30.58 | 181907 | 184214
14 | 40:56.15 | 4:08.45 | 184215 | 202859
15 | 45:04.60 | 4:32.42 | 202860 | 223301
16 | 49:37.27 | 2:47.35 | 223302 | 235861
17 | 52:24.62 | 2:53.00 | 235862 | 248836
18 | 55:17.62 | 4:48.43 | 248837 | 270479
19 | 60:06.30 | 3:50.52 | 270480 | 287781

Track 1

Filename K:\My torrents\Die Aerzte – 2000 – Runter mit den Spendierhosen, Unsichtbarer!\01. Die Arzte – Wie es geht.wav

Pre-gap length 0:00:02.42

Peak level 99.0 %
Track quality 100.0 %
Test CRC EA250746
Copy CRC EA250746
Accurately ripped (confidence 138) [D5A915D4]
Copy OK

Track 2

Filename K:\My torrents\Die Aerzte – 2000 – Runter mit den Spendierhosen, Unsichtbarer!\02. Die Arzte – Geld.wav

Pre-gap length 0:00:01.20

Peak level 99.0 %
Track quality 100.0 %
Test CRC C1631A90
Copy CRC C1631A90
Accurately ripped (confidence 137) [3491C572]
Copy OK

Track 3

Filename K:\My torrents\Die Aerzte – 2000 – Runter mit den Spendierhosen, Unsichtbarer!\03. Die Arzte – Gib mir Zeit.wav

Peak level 99.2 %
Track quality 100.0 %
Test CRC 9A0FF52B
Copy CRC 9A0FF52B
Accurately ripped (confidence 141) [F81A38E4]
Copy OK

Track 4

Filename K:\My torrents\Die Aerzte – 2000 – Runter mit den Spendierhosen, Unsichtbarer!\04. Die Arzte – Dir.wav

Pre-gap length 0:00:01.53

Peak level 99.0 %
Track quality 100.0 %
Test CRC 2ADD75C5
Copy CRC 2ADD75C5
Accurately ripped (confidence 140) [E1BD49F7]
Copy OK

Track 5

Filename K:\My torrents\Die Aerzte – 2000 – Runter mit den Spendierhosen, Unsichtbarer!\05. Die Arzte – Mondo Bondage.wav

Peak level 100.0 %
Track quality 100.0 %
Test CRC D0AB4E22
Copy CRC D0AB4E22
Accurately ripped (confidence 137) [A62856F2]
Copy OK

Track 6

Filename K:\My torrents\Die Aerzte – 2000 – Runter mit den Spendierhosen, Unsichtbarer!\06. Die Arzte – Onprangering.wav

Pre-gap length 0:00:01.17

Peak level 99.0 %
Track quality 99.9 %
Test CRC 92506C5F
Copy CRC 92506C5F
Accurately ripped (confidence 136) [9B2CD319]
Copy OK

Track 7

Filename K:\My torrents\Die Aerzte – 2000 – Runter mit den Spendierhosen, Unsichtbarer!\07. Die Arzte – Leichenhalle.wav

Pre-gap length 0:00:01.57

Peak level 100.0 %
Track quality 100.0 %
Test CRC 121EFEC3
Copy CRC 121EFEC3
Accurately ripped (confidence 136) [A022BB77]
Copy OK

Track 8

Filename K:\My torrents\Die Aerzte – 2000 – Runter mit den Spendierhosen, Unsichtbarer!\08. Die Arzte – Der Optimist.wav

Pre-gap length 0:00:01.84

Peak level 99.0 %
Track quality 100.0 %
Test CRC CDB8EA11
Copy CRC CDB8EA11
Accurately ripped (confidence 138) [FE6FD851]
Copy OK

Track 9

Filename K:\My torrents\Die Aerzte – 2000 – Runter mit den Spendierhosen, Unsichtbarer!\09. Die Arzte – Alles so einfach.wav

Pre-gap length 0:00:01.57

Peak level 99.0 %
Track quality 100.0 %
Test CRC A18C0110
Copy CRC A18C0110
Accurately ripped (confidence 135) [AD3914C0]
Copy OK

Track 10

Filename K:\My torrents\Die Aerzte – 2000 – Runter mit den Spendierhosen, Unsichtbarer!\10. Die Arzte – N 48.3.wav

Pre-gap length 0:00:01.04

Peak level 99.1 %
Track quality 100.0 %
Test CRC 634E9C17
Copy CRC 634E9C17
Accurately ripped (confidence 135) [5776B4D3]
Copy OK

Track 11

Filename K:\My torrents\Die Aerzte – 2000 – Runter mit den Spendierhosen, Unsichtbarer!\11. Die Arzte – Manchmal haben Frauen ….wav

Pre-gap length 0:00:00.70

Peak level 99.0 %
Track quality 99.9 %
Test CRC DBFE1EF9
Copy CRC DBFE1EF9
Accurately ripped (confidence 135) [66B30121]
Copy OK

Track 12

Filename K:\My torrents\Die Aerzte – 2000 – Runter mit den Spendierhosen, Unsichtbarer!\12. Die Arzte – Las Vegas.wav

Peak level 99.9 %
Track quality 100.0 %
Test CRC C0C2E8C6
Copy CRC C0C2E8C6
Accurately ripped (confidence 136) [22B3B25A]
Copy OK

Track 13

Filename K:\My torrents\Die Aerzte – 2000 – Runter mit den Spendierhosen, Unsichtbarer!\13. Die Arzte – Yoko Ono.wav

Peak level 99.0 %
Track quality 100.0 %
Test CRC 78A2479C
Copy CRC 78A2479C
Accurately ripped (confidence 137) [44755DE6]
Copy OK

Track 14

Filename K:\My torrents\Die Aerzte – 2000 – Runter mit den Spendierhosen, Unsichtbarer!\14. Die Arzte – Rock Rendezvous.wav

Peak level 100.0 %
Track quality 100.0 %
Test CRC CA265A0F
Copy CRC CA265A0F
Accurately ripped (confidence 133) [C99091E0]
Copy OK

Track 15

Filename K:\My torrents\Die Aerzte – 2000 – Runter mit den Spendierhosen, Unsichtbarer!\15. Die Arzte – Baby.wav

Peak level 100.0 %
Track quality 100.0 %
Test CRC 2594D27A
Copy CRC 2594D27A
Accurately ripped (confidence 128) [C8D2753A]
Copy OK

Track 16

Filename K:\My torrents\Die Aerzte – 2000 – Runter mit den Spendierhosen, Unsichtbarer!\16. Die Arzte – Kann es sein .wav

Peak level 99.0 %
Track quality 100.0 %
Test CRC AC2D634D
Copy CRC AC2D634D
Accurately ripped (confidence 130) [49BE500F]
Copy OK

Track 17

Filename K:\My torrents\Die Aerzte – 2000 – Runter mit den Spendierhosen, Unsichtbarer!\17. Die Arzte – Ein Sommer nur fur mich.wav

Peak level 99.6 %
Track quality 99.9 %
Test CRC B433A9AF
Copy CRC B433A9AF
Accurately ripped (confidence 130) [7BCEDAD6]
Copy OK

Track 18

Filename K:\My torrents\Die Aerzte – 2000 – Runter mit den Spendierhosen, Unsichtbarer!\18. Die Arzte – Rock’n’Roll Ubermensch.wav

Pre-gap length 0:00:01.46

Peak level 96.0 %
Track quality 99.9 %
Test CRC D45C3915
Copy CRC D45C3915
Accurately ripped (confidence 128) [B99D5602]
Copy OK

Track 19

Filename K:\My torrents\Die Aerzte – 2000 – Runter mit den Spendierhosen, Unsichtbarer!\19. Die Arzte – Herrliche Jahre.wav

Peak level 99.9 %
Track quality 100.0 %
Test CRC CCD47CCE
Copy CRC CCD47CCE
Accurately ripped (confidence 131) [2D1747FC]
Copy OK

All tracks accurately ripped

No errors occurred

End of status report


Leave a Reply

Your email address will not be published. Required fields are marked *

This site uses Akismet to reduce spam. Learn how your comment data is processed.