Die Ärzte – Rock ‘n’ Roll Realschule (MTV Unplugged)




No Cover available

Artist: Die Ärzte
Year: 2002
Genre: Punk
Notes: Discogs
Add. Notes:
Watch Songs on: YouTube
Cover incl.: Yes
Encoder: FLAC
Bitrate: ~900 kBit/s (44.1 kHz/16 Bit/s)
Log & Cue incl.: Yes
Size: 503 MB
Password: “slam” (without ” “)


All Downloads/Hosters are compatible

Download 1
KatFile.com
Turbobit.net
Rapidgator.net
FileFactory.com
Download 2
KatFile.com
Turbobit.net
Rapidgator.net
FileFactory.com

Tracklist:

1 - Schrei Nach Liebe - 3:54
2 - Ich Ess Blumen - 3:23
3 - Langweilig - 3:42
4 - Meine Ex(plodierte Freundin) - 
2:04
5 - Monsterparty - 3:28
6 - Hurra - 3:46
7 - Kopfhaut - 2:42
8 - Zu Spät - 3:41
9 - Westerland - 4:18
10 - 1/2 Lovesong - 4:14
11 - Komm Zurück - 3:29
12 - Der Graf - 3:34
13 - Ignorama - 2:58
14 - Is Ja Irre - 1:36
15 - Bitte Bitte - 2:59
16 - Mit Dem Schwert Nach Polen, 
Warum René? - 4:36
17 - Die Banane - 4:59
18 - Manchmal Haben Frauen... - 
5:28
19 - Medley - (4:59)

EAC-Log, CUE-Sheed & NFO:

Click to open spoiler
Exact Audio Copy V0.99 prebeta 5 from 4. May 2009

EAC extraction logfile from 21. March 2010, 21:17

Die Arzte / Rock’n’Roll Realschule (MTV Unplugged)

Used drive : HL-DT-STDVDRAM GSA-4040B Adapter: 0 ID: 1

Read mode : Secure
Utilize accurate stream : Yes
Defeat audio cache : Yes
Make use of C2 pointers : No

Read offset correction : 667
Overread into Lead-In and Lead-Out : No
Fill up missing offset samples with silence : Yes
Delete leading and trailing silent blocks : No
Null samples used in CRC calculations : Yes
Used interface : Native Win32 interface for Win NT & 2000
Gap handling : Appended to previous track

Used output format : User Defined Encoder
Selected bitrate : 1024 kBit/s
Quality : High
Add ID3 tag : No
Command line compressor : C:\Program Files\Exact Audio Copy\Flac\flac.exe
Additional command line options : -8 -V -T “ARTIST=%a” -T “TITLE=%t” -T “ALBUM=%g” -T “DATE=%y” -T “TRACKNUMBER=%n” -T “GENRE=%m” -T “COMMENT=ripped with eac 0.99 prebeta 5, secure mode, test and copy, encoded with flac-1.2.1b, -8” %s

TOC of the extracted CD

Track | Start | Length | Start sector | End sector
———————————————————
1 | 0:00.00 | 3:54.34 | 0 | 17583
2 | 3:54.34 | 3:23.59 | 17584 | 32867
3 | 7:18.18 | 3:42.04 | 32868 | 49521
4 | 11:00.22 | 2:04.06 | 49522 | 58827
5 | 13:04.28 | 3:28.40 | 58828 | 74467
6 | 16:32.68 | 3:46.44 | 74468 | 91461
7 | 20:19.37 | 2:42.44 | 91462 | 103655
8 | 23:02.06 | 3:41.54 | 103656 | 120284
9 | 26:43.60 | 4:18.36 | 120285 | 139670
10 | 31:02.21 | 4:14.64 | 139671 | 158784
11 | 35:17.10 | 3:29.29 | 158785 | 174488
12 | 38:46.39 | 3:34.11 | 174489 | 190549
13 | 42:20.50 | 2:58.29 | 190550 | 203928
14 | 45:19.04 | 1:36.16 | 203929 | 211144
15 | 46:55.20 | 2:59.67 | 211145 | 224636
16 | 49:55.12 | 4:36.00 | 224637 | 245336
17 | 54:31.12 | 4:59.37 | 245337 | 267798
18 | 59:30.49 | 5:28.73 | 267799 | 292471
19 | 64:59.47 | 4:59.19 | 292472 | 314915

Track 1

Filename D:\Lossless_Music\Die Arzte\02 – Livealben\2002 – Rock’n’Roll Realschule (MTV Unplugged)\01 – Schrei nach Liebe.wav

Pre-gap length 0:00:02.00

Peak level 100.0 %
Track quality 99.9 %
Test CRC 67B2A180
Copy CRC 67B2A180
Accurately ripped (confidence 104) [06345F87]
Copy OK

Track 2

Filename D:\Lossless_Music\Die Arzte\02 – Livealben\2002 – Rock’n’Roll Realschule (MTV Unplugged)\02 – Ich ess Blumen.wav

Peak level 100.0 %
Track quality 100.0 %
Test CRC B03D9869
Copy CRC B03D9869
Accurately ripped (confidence 106) [676FDFBD]
Copy OK

Track 3

Filename D:\Lossless_Music\Die Arzte\02 – Livealben\2002 – Rock’n’Roll Realschule (MTV Unplugged)\03 – Langweilig.wav

Peak level 100.0 %
Track quality 100.0 %
Test CRC C72F738A
Copy CRC C72F738A
Accurately ripped (confidence 107) [4B4AD28A]
Copy OK

Track 4

Filename D:\Lossless_Music\Die Arzte\02 – Livealben\2002 – Rock’n’Roll Realschule (MTV Unplugged)\04 – Meine Ex(plodierte Freundin).wav

Peak level 99.9 %
Track quality 100.0 %
Test CRC 9B5612D4
Copy CRC 9B5612D4
Accurately ripped (confidence 108) [99A2037A]
Copy OK

Track 5

Filename D:\Lossless_Music\Die Arzte\02 – Livealben\2002 – Rock’n’Roll Realschule (MTV Unplugged)\05 – Monsterparty.wav

Peak level 100.0 %
Track quality 99.9 %
Test CRC BD74B149
Copy CRC BD74B149
Accurately ripped (confidence 106) [4862F720]
Copy OK

Track 6

Filename D:\Lossless_Music\Die Arzte\02 – Livealben\2002 – Rock’n’Roll Realschule (MTV Unplugged)\06 – Hurra.wav

Peak level 99.9 %
Track quality 100.0 %
Test CRC 793F3D13
Copy CRC 793F3D13
Accurately ripped (confidence 108) [A6F8F686]
Copy OK

Track 7

Filename D:\Lossless_Music\Die Arzte\02 – Livealben\2002 – Rock’n’Roll Realschule (MTV Unplugged)\07 – Kopfhaut.wav

Peak level 99.9 %
Track quality 100.0 %
Test CRC D9D86105
Copy CRC D9D86105
Accurately ripped (confidence 107) [11403B61]
Copy OK

Track 8

Filename D:\Lossless_Music\Die Arzte\02 – Livealben\2002 – Rock’n’Roll Realschule (MTV Unplugged)\08 – Zu spat.wav

Peak level 100.0 %
Track quality 100.0 %
Test CRC 3E7419A6
Copy CRC 3E7419A6
Accurately ripped (confidence 107) [08F9C259]
Copy OK

Track 9

Filename D:\Lossless_Music\Die Arzte\02 – Livealben\2002 – Rock’n’Roll Realschule (MTV Unplugged)\09 – Westerland.wav

Peak level 100.0 %
Track quality 100.0 %
Test CRC 502DD5E9
Copy CRC 502DD5E9
Accurately ripped (confidence 105) [912C7FE6]
Copy OK

Track 10

Filename D:\Lossless_Music\Die Arzte\02 – Livealben\2002 – Rock’n’Roll Realschule (MTV Unplugged)\10 – 1,2 Lovesong.wav

Peak level 100.0 %
Track quality 100.0 %
Test CRC 3087A3E4
Copy CRC 3087A3E4
Accurately ripped (confidence 106) [6C34C5BA]
Copy OK

Track 11

Filename D:\Lossless_Music\Die Arzte\02 – Livealben\2002 – Rock’n’Roll Realschule (MTV Unplugged)\11 – Komm zuruck.wav

Peak level 100.0 %
Track quality 100.0 %
Test CRC 317080F8
Copy CRC 317080F8
Accurately ripped (confidence 107) [166132DE]
Copy OK

Track 12

Filename D:\Lossless_Music\Die Arzte\02 – Livealben\2002 – Rock’n’Roll Realschule (MTV Unplugged)\12 – Der Graf.wav

Peak level 100.0 %
Track quality 100.0 %
Test CRC 85320D25
Copy CRC 85320D25
Accurately ripped (confidence 105) [8AE100DB]
Copy OK

Track 13

Filename D:\Lossless_Music\Die Arzte\02 – Livealben\2002 – Rock’n’Roll Realschule (MTV Unplugged)\13 – Ignorama.wav

Peak level 100.0 %
Track quality 100.0 %
Test CRC 6CD97298
Copy CRC 6CD97298
Accurately ripped (confidence 104) [562FA146]
Copy OK

Track 14

Filename D:\Lossless_Music\Die Arzte\02 – Livealben\2002 – Rock’n’Roll Realschule (MTV Unplugged)\14 – Is ja Irre.wav

Peak level 100.0 %
Track quality 100.0 %
Test CRC 640931C2
Copy CRC 640931C2
Accurately ripped (confidence 108) [7350D15E]
Copy OK

Track 15

Filename D:\Lossless_Music\Die Arzte\02 – Livealben\2002 – Rock’n’Roll Realschule (MTV Unplugged)\15 – Bitte bitte.wav

Peak level 100.0 %
Track quality 100.0 %
Test CRC 09FF9433
Copy CRC 09FF9433
Accurately ripped (confidence 106) [952026E9]
Copy OK

Track 16

Filename D:\Lossless_Music\Die Arzte\02 – Livealben\2002 – Rock’n’Roll Realschule (MTV Unplugged)\16 – Mit dem Schwert nach Polen, warum Rene .wav

Peak level 100.0 %
Track quality 100.0 %
Test CRC 3128229F
Copy CRC 3128229F
Accurately ripped (confidence 105) [2C97EAEF]
Copy OK

Track 17

Filename D:\Lossless_Music\Die Arzte\02 – Livealben\2002 – Rock’n’Roll Realschule (MTV Unplugged)\17 – Die Banane.wav

Peak level 100.0 %
Track quality 100.0 %
Test CRC C6482241
Copy CRC C6482241
Accurately ripped (confidence 104) [1A2E3DD0]
Copy OK

Track 18

Filename D:\Lossless_Music\Die Arzte\02 – Livealben\2002 – Rock’n’Roll Realschule (MTV Unplugged)\18 – Manchmal haben Frauen….wav

Peak level 100.0 %
Track quality 100.0 %
Test CRC 08986AEF
Copy CRC 08986AEF
Accurately ripped (confidence 102) [0FAC1150]
Copy OK

Track 19

Filename D:\Lossless_Music\Die Arzte\02 – Livealben\2002 – Rock’n’Roll Realschule (MTV Unplugged)\19 – Medley.wav

Peak level 100.0 %
Track quality 100.0 %
Test CRC B9D7992F
Copy CRC B9D7992F
Accurately ripped (confidence 101) [DDD3370D]
Copy OK

All tracks accurately ripped

No errors occurred

End of status report


Leave a Reply

Your email address will not be published. Required fields are marked *

Enter the text from the image below
 

This site uses Akismet to reduce spam. Learn how your comment data is processed.