Die Ärzte – Planet Punk




Artist: Die Ärzte
Year: 1995
Genre: Punk
Notes: Discogs
Add. Notes:
Cover incl.: Yes
Encoder: FLAC
Bitrate: ~1000 kBit/s (44.1 kHz/16 Bit/s)
Log & Cue incl.: Yes
Size: 437 MB
Password: “slam” (without ” “)


All Downloads/Hosters are compatible

Download 1
KatFile.com
Rapidgator.net
Turbobit.net
FileFactory.com
Download 2
KatFile.com
Rapidgator.net
Turbobit.net
FileFactory.com

Tracklist:

Super Drei
Schunder-Song
Hurra
Geh mit mir
Langweilig
Mein Freund Michael
Rod Loves You
Der Misanthrop
Vermissen, Baby
Nazareth
Meine Ex(plodierte Freundin)
Die Banane
B.S.L.
Die Traurige Ballade Von Susi 
Spakowski
Red Mit Mir
Trick 17 m. S.
Opfer

EAC-Log, CUE-Sheed & NFO:

Click to open spoiler
Exact Audio Copy V0.99 prebeta 5 from 4. May 2009

EAC extraction logfile from 11. March 2010, 17:10

Die Ärzte / Planet Punk

Used drive : PIONEER DVD-RW DVRKD08A Adapter: 0 ID: 0

Read mode : Secure
Utilize accurate stream : Yes
Defeat audio cache : Yes
Make use of C2 pointers : No

Read offset correction : 48
Overread into Lead-In and Lead-Out : No
Fill up missing offset samples with silence : Yes
Delete leading and trailing silent blocks : No
Null samples used in CRC calculations : Yes
Used interface : Native Win32 interface for Win NT & 2000
Gap handling : Appended to previous track

Used output format : User Defined Encoder
Selected bitrate : 320 kBit/s
Quality : High
Add ID3 tag : No
Command line compressor : C:\Program Files\Exact Audio Copy\Flac\flac.exe
Additional command line options : -V -8 -T “artist=%a” -T “title=%t” -T “album=%g” -T “date=%y” -T “tracknumber=%n” -T “genre=%m” %s

TOC of the extracted CD

Track | Start | Length | Start sector | End sector
———————————————————
1 | 0:00.32 | 2:16.10 | 32 | 10241
2 | 2:16.42 | 3:06.58 | 10242 | 24249
3 | 5:23.25 | 3:26.72 | 24250 | 39771
4 | 8:50.22 | 2:29.10 | 39772 | 50956
5 | 11:19.32 | 3:07.55 | 50957 | 65036
6 | 14:27.12 | 3:39.53 | 65037 | 81514
7 | 18:06.65 | 3:26.55 | 81515 | 97019
8 | 21:33.45 | 3:21.70 | 97020 | 112164
9 | 24:55.40 | 3:37.65 | 112165 | 128504
10 | 28:33.30 | 4:20.32 | 128505 | 148036
11 | 32:53.62 | 3:39.25 | 148037 | 164486
12 | 36:33.12 | 4:35.23 | 164487 | 185134
13 | 41:08.35 | 2:35.32 | 185135 | 196791
14 | 43:43.67 | 4:01.25 | 196792 | 214891
15 | 47:45.17 | 3:58.25 | 214892 | 232766
16 | 51:43.42 | 3:05.18 | 232767 | 246659
17 | 54:48.60 | 3:00.47 | 246660 | 260206

Track 1

Filename D:\Die Ärzte (Planet Punk) (1995) Planet Punk\01. Super drei.wav

Pre-gap length 0:00:02.32

Peak level 99.1 %
Track quality 99.9 %
Test CRC 8E5977E7
Copy CRC 8E5977E7
Accurately ripped (confidence 8) [B46A7BFF]
Copy OK

Track 2

Filename D:\Die Ärzte (Planet Punk) (1995) Planet Punk\02. Schunder-Song.wav

Peak level 99.1 %
Track quality 100.0 %
Test CRC 776CA128
Copy CRC 776CA128
Accurately ripped (confidence 8) [29073C34]
Copy OK

Track 3

Filename D:\Die Ärzte (Planet Punk) (1995) Planet Punk\03. Hurra.wav

Peak level 99.1 %
Track quality 100.0 %
Test CRC B7675DA3
Copy CRC B7675DA3
Accurately ripped (confidence 8) [E63656EA]
Copy OK

Track 4

Filename D:\Die Ärzte (Planet Punk) (1995) Planet Punk\04. Geh mit mir.wav

Peak level 99.0 %
Track quality 100.0 %
Test CRC 15694BC0
Copy CRC 15694BC0
Accurately ripped (confidence 8) [20916C84]
Copy OK

Track 5

Filename D:\Die Ärzte (Planet Punk) (1995) Planet Punk\05. Langweilig.wav

Peak level 99.0 %
Track quality 100.0 %
Test CRC 7CF12464
Copy CRC 7CF12464
Accurately ripped (confidence 8) [BCF436E4]
Copy OK

Track 6

Filename D:\Die Ärzte (Planet Punk) (1995) Planet Punk\06. Mein Freund Michael.wav

Peak level 99.0 %
Track quality 100.0 %
Test CRC 75ACF3D3
Copy CRC 75ACF3D3
Accurately ripped (confidence 7) [FE52816A]
Copy OK

Track 7

Filename D:\Die Ärzte (Planet Punk) (1995) Planet Punk\07. Rod ♥ You.wav

Pre-gap length 0:00:00.43

Peak level 99.0 %
Track quality 100.0 %
Test CRC 2BC24F29
Copy CRC 2BC24F29
Accurately ripped (confidence 9) [66BB991A]
Copy OK

Track 8

Filename D:\Die Ärzte (Planet Punk) (1995) Planet Punk\08. Der Misanthrop.wav

Pre-gap length 0:00:00.70

Peak level 99.0 %
Track quality 100.0 %
Test CRC 54AD565F
Copy CRC 54AD565F
Accurately ripped (confidence 8) [0727618E]
Copy OK

Track 9

Filename D:\Die Ärzte (Planet Punk) (1995) Planet Punk\09. Vermissen, Baby.wav

Peak level 99.1 %
Track quality 100.0 %
Test CRC 3FC63F35
Copy CRC 3FC63F35
Accurately ripped (confidence 8) [824B8802]
Copy OK

Track 10

Filename D:\Die Ärzte (Planet Punk) (1995) Planet Punk\10. Nazareth.wav

Peak level 99.0 %
Track quality 100.0 %
Test CRC 58884381
Copy CRC 58884381
Accurately ripped (confidence 8) [FDD50D78]
Copy OK

Track 11

Filename D:\Die Ärzte (Planet Punk) (1995) Planet Punk\11. Meine Ex(plodierte Freundin).wav

Peak level 99.0 %
Track quality 100.0 %
Test CRC 61B19BD0
Copy CRC 61B19BD0
Accurately ripped (confidence 8) [4813B761]
Copy OK

Track 12

Filename D:\Die Ärzte (Planet Punk) (1995) Planet Punk\12. Die Banane.wav

Peak level 99.0 %
Track quality 100.0 %
Test CRC 71FA367F
Copy CRC 71FA367F
Accurately ripped (confidence 7) [6BA745F8]
Copy OK

Track 13

Filename D:\Die Ärzte (Planet Punk) (1995) Planet Punk\13. B.S.L.wav

Pre-gap length 0:00:02.00

Peak level 99.0 %
Track quality 100.0 %
Test CRC 36BB1687
Copy CRC 36BB1687
Accurately ripped (confidence 8) [6E9B16D0]
Copy OK

Track 14

Filename D:\Die Ärzte (Planet Punk) (1995) Planet Punk\14. Die traurige Ballade von Susi Spakowski.wav

Peak level 99.0 %
Track quality 100.0 %
Test CRC 6F24AF25
Copy CRC 6F24AF25
Accurately ripped (confidence 8) [4C8E7517]
Copy OK

Track 15

Filename D:\Die Ärzte (Planet Punk) (1995) Planet Punk\15. Red mit mir.wav

Peak level 99.0 %
Track quality 100.0 %
Test CRC C958A265
Copy CRC C958A265
Accurately ripped (confidence 8) [36B9F406]
Copy OK

Track 16

Filename D:\Die Ärzte (Planet Punk) (1995) Planet Punk\16. Trick 17 m.S.wav

Peak level 99.0 %
Track quality 100.0 %
Test CRC 1C61B073
Copy CRC 1C61B073
Accurately ripped (confidence 8) [4CB96C2C]
Copy OK

Track 17

Filename D:\Die Ärzte (Planet Punk) (1995) Planet Punk\17. Opfer.wav

Pre-gap length 0:00:00.43

Peak level 99.0 %
Track quality 100.0 %
Test CRC 3896E56B
Copy CRC 3896E56B
Accurately ripped (confidence 8) [A4E6D520]
Copy OK

All tracks accurately ripped

No errors occurred

End of status report

REM DATE 1995
REM DISCID FE0D8D11
CATALOG 0731452915122
PERFORMER “Die Arzte”
TITLE “Planet Punk”
FILE “01. Super drei.flac” WAVE
TRACK 01 AUDIO
TITLE “Super drei”
PERFORMER “Die Azte”
ISRC DEF089503330
PREGAP 00:00:32
INDEX 01 00:00:00
FILE “02. Schunder-Song.flac” WAVE
TRACK 02 AUDIO
TITLE “Schunder-Song”
PERFORMER “Die Arzte”
ISRC DEF089503340
INDEX 01 00:00:00
FILE “03. Hurra.flac” WAVE
TRACK 03 AUDIO
TITLE “Hurra”
PERFORMER “Die Arzte”
ISRC DEF089503350
INDEX 01 00:00:00
FILE “04. Geh mit mir.flac” WAVE
TRACK 04 AUDIO
TITLE “Geh mit mir”
PERFORMER “Die Arzte”
ISRC DEF089503360
INDEX 01 00:00:00
FILE “05. Langweilig.flac” WAVE
TRACK 05 AUDIO
TITLE “Langweilig”
PERFORMER “Die Arzte”
ISRC DEF089503370
INDEX 01 00:00:00
FILE “06. Mein Freund Michael.flac” WAVE
TRACK 06 AUDIO
TITLE “Mein Freund Michael”
PERFORMER “Die Arzte”
ISRC DEF089503380
INDEX 01 00:00:00
TRACK 07 AUDIO
TITLE “Rod ¦ You”
PERFORMER “Die Arzte”
ISRC DEF089503390
INDEX 00 03:39:10
FILE “07. Rod ¦ You.flac” WAVE
INDEX 01 00:00:00
TRACK 08 AUDIO
TITLE “Der Misanthrop”
PERFORMER “Die Arzte”
ISRC DEF089503400
INDEX 00 03:25:60
FILE “08. Der Misanthrop.flac” WAVE
INDEX 01 00:00:00
FILE “09. Vermissen, Baby.flac” WAVE
TRACK 09 AUDIO
TITLE “Vermissen, Baby”
PERFORMER “Die Arzte”
ISRC DEF089503410
INDEX 01 00:00:00
FILE “10. Nazareth.flac” WAVE
TRACK 10 AUDIO
TITLE “Nazareth”
PERFORMER “Die Arzte”
ISRC DEF089503420
INDEX 01 00:00:00
FILE “11. Meine Ex(plodierte Freundin).flac” WAVE
TRACK 11 AUDIO
TITLE “Meine Ex(plodierte Freundin)”
PERFORMER “Die Arzte”
ISRC DEF089503430
INDEX 01 00:00:00
FILE “12. Die Banane.flac” WAVE
TRACK 12 AUDIO
TITLE “Die Banane”
PERFORMER “Die Arzte”
ISRC DEF089503440
INDEX 01 00:00:00
TRACK 13 AUDIO
TITLE “B.S.L.”
PERFORMER “Die Arzte”
ISRC DEF089503450
INDEX 00 04:33:23
FILE “13. B.S.L.flac” WAVE
INDEX 01 00:00:00
FILE “14. Die traurige Ballade von Susi Spakowski.flac” WAVE
TRACK 14 AUDIO
TITLE “Die traurige Ballade von Susi Spakowski”
PERFORMER “Die Arzte”
ISRC DEF089503460
INDEX 01 00:00:00
FILE “15. Red mit mir.flac” WAVE
TRACK 15 AUDIO
TITLE “Red mit mir”
PERFORMER “Die Arzte”
ISRC DEF089503470
INDEX 01 00:00:00
FILE “16. Trick 17 m.S.flac” WAVE
TRACK 16 AUDIO
TITLE “Trick 17 m.S.”
PERFORMER “Die Arzte”
ISRC DEF089503480
INDEX 01 00:00:00
TRACK 17 AUDIO
TITLE “Opfer”
PERFORMER “Die Arzte”
INDEX 00 03:04:50
FILE “17. Opfer.flac” WAVE
INDEX 01 00:00:00


Leave a Reply

Your email address will not be published. Required fields are marked *

Enter the text from the image below
 

This site uses Akismet to reduce spam. Learn how your comment data is processed.