Die Ärzte – Die Ärzte – Live (Nach Uns Die Sintflut)




Artist: Die Ärzte
Year: 1988
Genre: Punk
Notes: Discogs
Add. Notes:
Cover incl.: Yes
Encoder: FLAC
Bitrate: ~900 kBit/s (44.1 kHz/16 Bit/s)
Log & Cue incl.: Yes
Size: 880,8 MB
Password: “slam” (without ” “)


All Downloads/Hosters are compatible

Download 1
KatFile.com
Rapidgator.net
Turbobit.net
FileFactory.com
Download 2
KatFile.com
Rapidgator.net
Turbobit.net
FileFactory.com

Tracklist:

Ouvertüre zum besten Konzert der Welt (live)
Radio brennt (live)
Mädchen (live)
Frank’n’stein (live)
Ohne dich (live)
Blumen (live)
Sweet sweet Gwendoline (live)
Alleine in der Nacht (live)
Außerirdische (live)
Buddy Holly’s Brille (live)
Popstar (live)
El Cattivo (live)
Madonnas Dickdarm (live)
Dein Vampyr (live)
Siegerin (live)
Westerland (live)
2000 Mädchen (live)
Mysteryland (live)
Du willst mich küssen (live)
Gute Zeit (live)
Helmut K. (live)
Wie am ersten Tag (live)
Wer hat an der Uhr gedreht? (live)
Medley + Zu spät (live)
Elke (live)
Ist das alles? (live)
Claudia Teil 3 (live)
Radio Rap (live)
Roter Minirock (live)
Scheißtyp (live)
Sie kratzt (live)
Teenager Liebe (live)
Vollmilch (live)
Ich bin wild (live)
Uns geht’s prima (live)
Sprüche (live)
Schwanz ab (live)
Der Ritt auf dem Schmetterling (live)

EAC-Log, CUE-Sheed & NFO:

Click to open spoiler
Exact Audio Copy V0.99 prebeta 5 from 4. May 2009

EAC extraction logfile from 19. September 2010, 21:25

Die Arzte / Nach uns die Sintflut – Live (CD 1)

Used drive : HL-DT-STDVDRAM GSA-4040B Adapter: 0 ID: 1

Read mode : Secure
Utilize accurate stream : Yes
Defeat audio cache : Yes
Make use of C2 pointers : No

Read offset correction : 667
Overread into Lead-In and Lead-Out : No
Fill up missing offset samples with silence : Yes
Delete leading and trailing silent blocks : No
Null samples used in CRC calculations : Yes
Used interface : Native Win32 interface for Win NT & 2000
Gap handling : Appended to previous track

Used output format : User Defined Encoder
Selected bitrate : 1024 kBit/s
Quality : High
Add ID3 tag : No
Command line compressor : C:\Program Files\FLAC\flac.exe
Additional command line options : -8 -V -T “ARTIST=%a” -T “TITLE=%t” -T “ALBUM=%g” -T “DATE=%y” -T “TRACKNUMBER=%n” -T “GENRE=%m” -T “COMMENT=EAC FLAC -8” %s

TOC of the extracted CD

Track | Start | Length | Start sector | End sector
———————————————————
1 | 0:00.00 | 2:44.22 | 0 | 12321
2 | 2:44.22 | 2:27.03 | 12322 | 23349
3 | 5:11.25 | 2:23.70 | 23350 | 34144
4 | 7:35.20 | 2:07.72 | 34145 | 43741
5 | 9:43.17 | 2:06.20 | 43742 | 53211
6 | 11:49.37 | 3:05.45 | 53212 | 67131
7 | 14:55.07 | 2:07.30 | 67132 | 76686
8 | 17:02.37 | 2:31.45 | 76687 | 88056
9 | 19:34.07 | 2:27.58 | 88057 | 99139
10 | 22:01.65 | 3:46.37 | 99140 | 116126
11 | 25:48.27 | 3:12.45 | 116127 | 130571
12 | 29:00.72 | 2:54.73 | 130572 | 143694
13 | 31:55.70 | 2:02.52 | 143695 | 152896
14 | 33:58.47 | 2:30.28 | 152897 | 164174
15 | 36:29.00 | 2:13.15 | 164175 | 174164
16 | 38:42.15 | 3:43.52 | 174165 | 190941
17 | 42:25.67 | 2:55.35 | 190942 | 204101
18 | 45:21.27 | 3:23.03 | 204102 | 219329
19 | 48:44.30 | 3:05.52 | 219330 | 233256
20 | 51:50.07 | 2:53.43 | 233257 | 246274
21 | 54:43.50 | 2:18.55 | 246275 | 256679
22 | 57:02.30 | 2:53.20 | 256680 | 269674

Track 1

Filename K:\My torrents\Die Aerzte – 1988 – Nach uns die Sintflut\Disc 1\01. Die Arzte – Ouvertuere zum besten Konzert der Welt.wav

Pre-gap length 0:00:02.00

Peak level 88.7 %
Track quality 100.0 %
Test CRC 5C894F82
Copy CRC 5C894F82
Accurately ripped (confidence 24) [EA3ED47A]
Copy OK

Track 2

Filename K:\My torrents\Die Aerzte – 1988 – Nach uns die Sintflut\Disc 1\02. Die Arzte – Radio brennt.wav

Peak level 90.3 %
Track quality 100.0 %
Test CRC BAFAE924
Copy CRC BAFAE924
Accurately ripped (confidence 25) [B40A7073]
Copy OK

Track 3

Filename K:\My torrents\Die Aerzte – 1988 – Nach uns die Sintflut\Disc 1\03. Die Arzte – Maedchen.wav

Peak level 94.6 %
Track quality 100.0 %
Test CRC D64D6396
Copy CRC D64D6396
Accurately ripped (confidence 26) [B603F194]
Copy OK

Track 4

Filename K:\My torrents\Die Aerzte – 1988 – Nach uns die Sintflut\Disc 1\04. Die Arzte – Frank’N’Stein.wav

Peak level 90.2 %
Track quality 100.0 %
Test CRC A9B972E0
Copy CRC A9B972E0
Accurately ripped (confidence 26) [F3D507C8]
Copy OK

Track 5

Filename K:\My torrents\Die Aerzte – 1988 – Nach uns die Sintflut\Disc 1\05. Die Arzte – Ohne Dich.wav

Peak level 91.9 %
Track quality 100.0 %
Test CRC 1B6102D6
Copy CRC 1B6102D6
Accurately ripped (confidence 26) [99B4AA3C]
Copy OK

Track 6

Filename K:\My torrents\Die Aerzte – 1988 – Nach uns die Sintflut\Disc 1\06. Die Arzte – Blumen.wav

Peak level 94.7 %
Track quality 99.9 %
Test CRC E2DD7814
Copy CRC E2DD7814
Accurately ripped (confidence 25) [E1028FFA]
Copy OK

Track 7

Filename K:\My torrents\Die Aerzte – 1988 – Nach uns die Sintflut\Disc 1\07. Die Arzte – Sweet sweet Gwendoline.wav

Peak level 95.9 %
Track quality 100.0 %
Test CRC DD05E9D1
Copy CRC DD05E9D1
Accurately ripped (confidence 26) [13014FC4]
Copy OK

Track 8

Filename K:\My torrents\Die Aerzte – 1988 – Nach uns die Sintflut\Disc 1\08. Die Arzte – Alleine in der Nacht.wav

Peak level 96.8 %
Track quality 100.0 %
Test CRC EA7073E7
Copy CRC EA7073E7
Accurately ripped (confidence 26) [8D901770]
Copy OK

Track 9

Filename K:\My torrents\Die Aerzte – 1988 – Nach uns die Sintflut\Disc 1\09. Die Arzte – Ausserirdische.wav

Peak level 99.2 %
Track quality 99.9 %
Test CRC 821589E0
Copy CRC 821589E0
Accurately ripped (confidence 26) [0617FDAD]
Copy OK

Track 10

Filename K:\My torrents\Die Aerzte – 1988 – Nach uns die Sintflut\Disc 1\10. Die Arzte – Buddy Holly’s Brille.wav

Peak level 98.7 %
Track quality 100.0 %
Test CRC 5DB06417
Copy CRC 5DB06417
Accurately ripped (confidence 26) [784C99D5]
Copy OK

Track 11

Filename K:\My torrents\Die Aerzte – 1988 – Nach uns die Sintflut\Disc 1\11. Die Arzte – Popstar.wav

Pre-gap length 0:00:00.01

Peak level 99.3 %
Track quality 99.9 %
Test CRC CF6F2DA6
Copy CRC CF6F2DA6
Accurately ripped (confidence 25) [79CFBF3E]
Copy OK

Track 12

Filename K:\My torrents\Die Aerzte – 1988 – Nach uns die Sintflut\Disc 1\12. Die Arzte – El Cattivo.wav

Peak level 100.0 %
Track quality 99.9 %
Test CRC CBE31208
Copy CRC CBE31208
Accurately ripped (confidence 25) [4C5525FF]
Copy OK

Track 13

Filename K:\My torrents\Die Aerzte – 1988 – Nach uns die Sintflut\Disc 1\13. Die Arzte – Madonnas Dickdarm.wav

Peak level 96.4 %
Track quality 100.0 %
Test CRC C8A28E78
Copy CRC C8A28E78
Accurately ripped (confidence 26) [383BC4E0]
Copy OK

Track 14

Filename K:\My torrents\Die Aerzte – 1988 – Nach uns die Sintflut\Disc 1\14. Die Arzte – Dein Vampyr.wav

Pre-gap length 0:00:01.58

Peak level 98.4 %
Track quality 100.0 %
Test CRC D633F825
Copy CRC D633F825
Accurately ripped (confidence 25) [3B460D75]
Copy OK

Track 15

Filename K:\My torrents\Die Aerzte – 1988 – Nach uns die Sintflut\Disc 1\15. Die Arzte – Siegerin.wav

Peak level 99.4 %
Track quality 100.0 %
Test CRC 14FAC91A
Copy CRC 14FAC91A
Accurately ripped (confidence 26) [D628B2B2]
Copy OK

Track 16

Filename K:\My torrents\Die Aerzte – 1988 – Nach uns die Sintflut\Disc 1\16. Die Arzte – Westerland.wav

Peak level 96.8 %
Track quality 100.0 %
Test CRC B01DC005
Copy CRC B01DC005
Accurately ripped (confidence 26) [88AB0E33]
Copy OK

Track 17

Filename K:\My torrents\Die Aerzte – 1988 – Nach uns die Sintflut\Disc 1\17. Die Arzte – 2000 Maedchen.wav

Peak level 97.9 %
Track quality 100.0 %
Test CRC E3BACBAB
Copy CRC E3BACBAB
Accurately ripped (confidence 26) [4F925130]
Copy OK

Track 18

Filename K:\My torrents\Die Aerzte – 1988 – Nach uns die Sintflut\Disc 1\18. Die Arzte – Mysteryland.wav

Peak level 98.9 %
Track quality 100.0 %
Test CRC 9BEF7CB8
Copy CRC 9BEF7CB8
Accurately ripped (confidence 25) [C58A59BB]
Copy OK

Track 19

Filename K:\My torrents\Die Aerzte – 1988 – Nach uns die Sintflut\Disc 1\19. Die Arzte – Du willst mich kuessen.wav

Peak level 97.5 %
Track quality 100.0 %
Test CRC 3F63A8E4
Copy CRC 3F63A8E4
Accurately ripped (confidence 24) [DE8A7716]
Copy OK

Track 20

Filename K:\My torrents\Die Aerzte – 1988 – Nach uns die Sintflut\Disc 1\20. Die Arzte – Gute Zeit.wav

Peak level 97.3 %
Track quality 100.0 %
Test CRC 176411A9
Copy CRC 176411A9
Accurately ripped (confidence 25) [CDDA5C33]
Copy OK

Track 21

Filename K:\My torrents\Die Aerzte – 1988 – Nach uns die Sintflut\Disc 1\21. Die Arzte – Helmut K..wav

Peak level 90.9 %
Track quality 100.0 %
Test CRC EE7CE904
Copy CRC EE7CE904
Accurately ripped (confidence 26) [F12BDBF5]
Copy OK

Track 22

Filename K:\My torrents\Die Aerzte – 1988 – Nach uns die Sintflut\Disc 1\22. Die Arzte – Wie am ersten Tag.wav

Peak level 97.3 %
Track quality 100.0 %
Test CRC 163732D2
Copy CRC 163732D2
Accurately ripped (confidence 26) [2373D691]
Copy OK

All tracks accurately ripped

No errors occurred

End of status report

Exact Audio Copy V0.99 prebeta 5 from 4. May 2009

EAC extraction logfile from 19. September 2010, 22:50

Die Arzte / Nach uns die Sintflut – Live (CD 2)

Used drive : HL-DT-STDVDRAM GSA-4040B Adapter: 0 ID: 1

Read mode : Secure
Utilize accurate stream : Yes
Defeat audio cache : Yes
Make use of C2 pointers : No

Read offset correction : 667
Overread into Lead-In and Lead-Out : No
Fill up missing offset samples with silence : Yes
Delete leading and trailing silent blocks : No
Null samples used in CRC calculations : Yes
Used interface : Native Win32 interface for Win NT & 2000
Gap handling : Appended to previous track

Used output format : User Defined Encoder
Selected bitrate : 1024 kBit/s
Quality : High
Add ID3 tag : No
Command line compressor : C:\Program Files\FLAC\flac.exe
Additional command line options : -8 -V -T “ARTIST=%a” -T “TITLE=%t” -T “ALBUM=%g” -T “DATE=%y” -T “TRACKNUMBER=%n” -T “GENRE=%m” -T “COMMENT=EAC FLAC -8” %s

TOC of the extracted CD

Track | Start | Length | Start sector | End sector
———————————————————
1 | 0:00.00 | 1:01.47 | 0 | 4621
2 | 1:01.47 | 6:19.30 | 4622 | 33076
3 | 7:21.02 | 3:54.40 | 33077 | 50666
4 | 11:15.42 | 3:26.58 | 50667 | 66174
5 | 14:42.25 | 6:06.50 | 66175 | 93674
6 | 20:49.00 | 2:30.37 | 93675 | 104961
7 | 23:19.37 | 1:59.45 | 104962 | 113931
8 | 25:19.07 | 2:19.40 | 113932 | 124396
9 | 27:38.47 | 2:11.53 | 124397 | 134274
10 | 29:50.25 | 2:35.37 | 134275 | 145936
11 | 32:25.62 | 2:15.25 | 145937 | 156086
12 | 34:41.12 | 3:34.23 | 156087 | 172159
13 | 38:15.35 | 1:45.02 | 172160 | 180036
14 | 40:00.37 | 18:38.33 | 180037 | 263919
15 | 58:38.70 | 10:14.17 | 263920 | 309986

Track 1

Filename K:\My torrents\Die Aerzte – 1988 – Nach uns die Sintflut\Disc 2\01. Die Arzte – Wer hat an der Uhr gedreht .wav

Pre-gap length 0:00:02.00

Peak level 84.2 %
Track quality 100.0 %
Test CRC 8F6F0BBE
Copy CRC 8F6F0BBE
Accurately ripped (confidence 23) [1C0F35ED]
Copy OK

Track 2

Filename K:\My torrents\Die Aerzte – 1988 – Nach uns die Sintflut\Disc 2\02. Die Arzte – Medley.wav

Peak level 87.3 %
Track quality 100.0 %
Test CRC 71547C12
Copy CRC 71547C12
Accurately ripped (confidence 24) [AAAC2E00]
Copy OK

Track 3

Filename K:\My torrents\Die Aerzte – 1988 – Nach uns die Sintflut\Disc 2\03. Die Arzte – Elke.wav

Peak level 83.2 %
Track quality 100.0 %
Test CRC A105CACC
Copy CRC A105CACC
Accurately ripped (confidence 25) [6D6974BA]
Copy OK

Track 4

Filename K:\My torrents\Die Aerzte – 1988 – Nach uns die Sintflut\Disc 2\04. Die Arzte – Ist das alles .wav

Peak level 87.0 %
Track quality 100.0 %
Test CRC 33B4CF22
Copy CRC 33B4CF22
Accurately ripped (confidence 25) [F37F3836]
Copy OK

Track 5

Filename K:\My torrents\Die Aerzte – 1988 – Nach uns die Sintflut\Disc 2\05. Die Arzte – Claudia.wav

Peak level 83.2 %
Track quality 100.0 %
Test CRC 30F6F70B
Copy CRC 30F6F70B
Accurately ripped (confidence 24) [C963A993]
Copy OK

Track 6

Filename K:\My torrents\Die Aerzte – 1988 – Nach uns die Sintflut\Disc 2\06. Die Arzte – Radio Rap.wav

Peak level 100.0 %
Track quality 100.0 %
Test CRC BD09C5D7
Copy CRC BD09C5D7
Accurately ripped (confidence 25) [BBACBADB]
Copy OK

Track 7

Filename K:\My torrents\Die Aerzte – 1988 – Nach uns die Sintflut\Disc 2\07. Die Arzte – Roter Minirock.wav

Peak level 93.2 %
Track quality 100.0 %
Test CRC 49247FA3
Copy CRC 49247FA3
Accurately ripped (confidence 24) [7BC9E775]
Copy OK

Track 8

Filename K:\My torrents\Die Aerzte – 1988 – Nach uns die Sintflut\Disc 2\08. Die Arzte – Scheisstyp.wav

Peak level 85.5 %
Track quality 100.0 %
Test CRC 06C66500
Copy CRC 06C66500
Accurately ripped (confidence 25) [B7110AD7]
Copy OK

Track 9

Filename K:\My torrents\Die Aerzte – 1988 – Nach uns die Sintflut\Disc 2\09. Die Arzte – Sie kratzt, sie stinkt, sie klebt.wav

Peak level 84.8 %
Track quality 100.0 %
Test CRC 4F36EC61
Copy CRC 4F36EC61
Accurately ripped (confidence 24) [D0C56C8D]
Copy OK

Track 10

Filename K:\My torrents\Die Aerzte – 1988 – Nach uns die Sintflut\Disc 2\10. Die Arzte – Teenager Liebe.wav

Peak level 92.0 %
Track quality 100.0 %
Test CRC 4A746CF4
Copy CRC 4A746CF4
Accurately ripped (confidence 24) [C6D2AC68]
Copy OK

Track 11

Filename K:\My torrents\Die Aerzte – 1988 – Nach uns die Sintflut\Disc 2\11. Die Arzte – Vollmilch.wav

Peak level 86.1 %
Track quality 100.0 %
Test CRC 72E1F508
Copy CRC 72E1F508
Accurately ripped (confidence 24) [F927623B]
Copy OK

Track 12

Filename K:\My torrents\Die Aerzte – 1988 – Nach uns die Sintflut\Disc 2\12. Die Arzte – Ich bin wild.wav

Peak level 97.5 %
Track quality 100.0 %
Test CRC 285CB8FE
Copy CRC 285CB8FE
Accurately ripped (confidence 25) [4AF29FAB]
Copy OK

Track 13

Filename K:\My torrents\Die Aerzte – 1988 – Nach uns die Sintflut\Disc 2\13. Die Arzte – Uns geht’s prima.wav

Peak level 87.2 %
Track quality 100.0 %
Test CRC 5066229F
Copy CRC 5066229F
Accurately ripped (confidence 24) [71DE64C0]
Copy OK

Track 14

Filename K:\My torrents\Die Aerzte – 1988 – Nach uns die Sintflut\Disc 2\14. Die Arzte – Sprueche.wav

Peak level 76.0 %
Track quality 100.0 %
Test CRC 91BDDAC6
Copy CRC 91BDDAC6
Accurately ripped (confidence 23) [88EB83A4]
Copy OK

Track 15

Filename K:\My torrents\Die Aerzte – 1988 – Nach uns die Sintflut\Disc 2\15. Die Arzte – Feminin.wav

Peak level 82.1 %
Track quality 100.0 %
Test CRC DC01B908
Copy CRC DC01B908
Accurately ripped (confidence 22) [631CA3F3]
Copy OK

All tracks accurately ripped

No errors occurred

End of status report

REM GENRE Deutsch
REM DATE 1988
REM DISCID 1B0E0B16
REM COMMENT “ExactAudioCopy v0.99pb5”
PERFORMER “Die Arzte”
TITLE “Nach uns die Sintflut – Live (CD 1)”
FILE “01. Die Arzte – Ouvertuere zum besten Konzert der Welt.wav” WAVE
TRACK 01 AUDIO
TITLE “Ouvertuere zum besten Konzert der Welt”
PERFORMER “Die Arzte”
INDEX 01 00:00:00
FILE “02. Die Arzte – Radio brennt.wav” WAVE
TRACK 02 AUDIO
TITLE “Radio brennt”
PERFORMER “Die Arzte”
INDEX 01 00:00:00
FILE “03. Die Arzte – Maedchen.wav” WAVE
TRACK 03 AUDIO
TITLE “Maedchen”
PERFORMER “Die Arzte”
INDEX 01 00:00:00
FILE “04. Die Arzte – Frank’N’Stein.wav” WAVE
TRACK 04 AUDIO
TITLE “Frank’N’Stein”
PERFORMER “Die Arzte”
INDEX 01 00:00:00
FILE “05. Die Arzte – Ohne Dich.wav” WAVE
TRACK 05 AUDIO
TITLE “Ohne Dich”
PERFORMER “Die Arzte”
INDEX 01 00:00:00
FILE “06. Die Arzte – Blumen.wav” WAVE
TRACK 06 AUDIO
TITLE “Blumen”
PERFORMER “Die Arzte”
INDEX 01 00:00:00
FILE “07. Die Arzte – Sweet sweet Gwendoline.wav” WAVE
TRACK 07 AUDIO
TITLE “Sweet sweet Gwendoline”
PERFORMER “Die Arzte”
INDEX 01 00:00:00
FILE “08. Die Arzte – Alleine in der Nacht.wav” WAVE
TRACK 08 AUDIO
TITLE “Alleine in der Nacht”
PERFORMER “Die Arzte”
INDEX 01 00:00:00
FILE “09. Die Arzte – Ausserirdische.wav” WAVE
TRACK 09 AUDIO
TITLE “Ausserirdische”
PERFORMER “Die Arzte”
INDEX 01 00:00:00
FILE “10. Die Arzte – Buddy Holly’s Brille.wav” WAVE
TRACK 10 AUDIO
TITLE “Buddy Holly’s Brille”
PERFORMER “Die Arzte”
INDEX 01 00:00:00
TRACK 11 AUDIO
TITLE “Popstar”
PERFORMER “Die Arzte”
INDEX 00 03:46:36
FILE “11. Die Arzte – Popstar.wav” WAVE
INDEX 01 00:00:00
FILE “12. Die Arzte – El Cattivo.wav” WAVE
TRACK 12 AUDIO
TITLE “El Cattivo”
PERFORMER “Die Arzte”
INDEX 01 00:00:00
FILE “13. Die Arzte – Madonnas Dickdarm.wav” WAVE
TRACK 13 AUDIO
TITLE “Madonnas Dickdarm”
PERFORMER “Die Arzte”
INDEX 01 00:00:00
TRACK 14 AUDIO
TITLE “Dein Vampyr”
PERFORMER “Die Arzte”
INDEX 00 02:01:08
FILE “14. Die Arzte – Dein Vampyr.wav” WAVE
INDEX 01 00:00:00
FILE “15. Die Arzte – Siegerin.wav” WAVE
TRACK 15 AUDIO
TITLE “Siegerin”
PERFORMER “Die Arzte”
INDEX 01 00:00:00
FILE “16. Die Arzte – Westerland.wav” WAVE
TRACK 16 AUDIO
TITLE “Westerland”
PERFORMER “Die Arzte”
INDEX 01 00:00:00
FILE “17. Die Arzte – 2000 Maedchen.wav” WAVE
TRACK 17 AUDIO
TITLE “2000 Maedchen”
PERFORMER “Die Arzte”
INDEX 01 00:00:00
FILE “18. Die Arzte – Mysteryland.wav” WAVE
TRACK 18 AUDIO
TITLE “Mysteryland”
PERFORMER “Die Arzte”
INDEX 01 00:00:00
FILE “19. Die Arzte – Du willst mich kuessen.wav” WAVE
TRACK 19 AUDIO
TITLE “Du willst mich kuessen”
PERFORMER “Die Arzte”
INDEX 01 00:00:00
FILE “20. Die Arzte – Gute Zeit.wav” WAVE
TRACK 20 AUDIO
TITLE “Gute Zeit”
PERFORMER “Die Arzte”
INDEX 01 00:00:00
FILE “21. Die Arzte – Helmut K..wav” WAVE
TRACK 21 AUDIO
TITLE “Helmut K.”
PERFORMER “Die Arzte”
INDEX 01 00:00:00
FILE “22. Die Arzte – Wie am ersten Tag.wav” WAVE
TRACK 22 AUDIO
TITLE “Wie am ersten Tag”
PERFORMER “Die Arzte”
INDEX 01 00:00:00

REM GENRE Deutsch
REM DATE 1988
REM DISCID BE10250F
REM COMMENT “ExactAudioCopy v0.99pb5”
PERFORMER “Die Arzte”
TITLE “Nach uns die Sintflut – Live (CD 2)”
FILE “01. Die Arzte – Wer hat an der Uhr gedreht .wav” WAVE
TRACK 01 AUDIO
TITLE “Wer hat an der Uhr gedreht?”
PERFORMER “Die Arzte”
INDEX 01 00:00:00
FILE “02. Die Arzte – Medley.wav” WAVE
TRACK 02 AUDIO
TITLE “Medley”
PERFORMER “Die Arzte”
INDEX 01 00:00:00
FILE “03. Die Arzte – Elke.wav” WAVE
TRACK 03 AUDIO
TITLE “Elke”
PERFORMER “Die Arzte”
INDEX 01 00:00:00
FILE “04. Die Arzte – Ist das alles .wav” WAVE
TRACK 04 AUDIO
TITLE “Ist das alles?”
PERFORMER “Die Arzte”
INDEX 01 00:00:00
FILE “05. Die Arzte – Claudia.wav” WAVE
TRACK 05 AUDIO
TITLE “Claudia”
PERFORMER “Die Arzte”
INDEX 01 00:00:00
FILE “06. Die Arzte – Radio Rap.wav” WAVE
TRACK 06 AUDIO
TITLE “Radio Rap”
PERFORMER “Die Arzte”
INDEX 01 00:00:00
FILE “07. Die Arzte – Roter Minirock.wav” WAVE
TRACK 07 AUDIO
TITLE “Roter Minirock”
PERFORMER “Die Arzte”
INDEX 01 00:00:00
FILE “08. Die Arzte – Scheisstyp.wav” WAVE
TRACK 08 AUDIO
TITLE “Scheisstyp”
PERFORMER “Die Arzte”
INDEX 01 00:00:00
FILE “09. Die Arzte – Sie kratzt, sie stinkt, sie klebt.wav” WAVE
TRACK 09 AUDIO
TITLE “Sie kratzt, sie stinkt, sie klebt”
PERFORMER “Die Arzte”
INDEX 01 00:00:00
FILE “10. Die Arzte – Teenager Liebe.wav” WAVE
TRACK 10 AUDIO
TITLE “Teenager Liebe”
PERFORMER “Die Arzte”
INDEX 01 00:00:00
FILE “11. Die Arzte – Vollmilch.wav” WAVE
TRACK 11 AUDIO
TITLE “Vollmilch”
PERFORMER “Die Arzte”
INDEX 01 00:00:00
FILE “12. Die Arzte – Ich bin wild.wav” WAVE
TRACK 12 AUDIO
TITLE “Ich bin wild”
PERFORMER “Die Arzte”
INDEX 01 00:00:00
FILE “13. Die Arzte – Uns geht’s prima.wav” WAVE
TRACK 13 AUDIO
TITLE “Uns geht’s prima”
PERFORMER “Die Arzte”
INDEX 01 00:00:00
FILE “14. Die Arzte – Sprueche.wav” WAVE
TRACK 14 AUDIO
TITLE “Sprueche”
PERFORMER “Die Arzte”
INDEX 01 00:00:00
FILE “15. Die Arzte – Feminin.wav” WAVE
TRACK 15 AUDIO
TITLE “Feminin”
PERFORMER “Die Arzte”
INDEX 01 00:00:00


Leave a Reply

Your email address will not be published. Required fields are marked *

This site uses Akismet to reduce spam. Learn how your comment data is processed.