Die Ärzte – Le Frisur




Artist: Die Ärzte
Year: 1996
Genre: Punk
Notes: Discogs
Add. Notes:
Cover incl.: Yes
Encoder: FLAC
Bitrate: ~900 kBit/s (44.1 kHz/16 Bit/s)
Log & Cue incl.: Yes
Size: 315 MB
Password: “slam” (without ” “)


All Downloads/Hosters are compatible

Download 1
KatFile.com
Rapidgator.net
Turbobit.net
FileFactory.com
Download 2
KatFile.com
Rapidgator.net
Turbobit.net
FileFactory.com

Tracklist:

Erklärung
Mein Baby war beim Frisör
Vokuhila Superstar
3-Tage-Bart
No Future (Ohne neue Haarfrisur)
Look, Don’t Touch
Straight Outta Bückeburg
Medusa-Man (Serienmörder Ralf)
Haar
Dauerwelle vs. Minipli
Der Afro von Paul Breitner
Motherfucker 666
Monika
Hair Today, Gone Tomorrow
Am Ende meines Körpers
Kaperfahrt
Zusammenfassung

EAC-Log, CUE-Sheed & NFO:

Click to open spoiler
Exact Audio Copy V0.99 prebeta 5 from 4. May 2009

EAC extraction logfile from 5. October 2010, 16:06

Die Arzte / Le Frisur

Used drive : HL-DT-STDVDRAM GSA-4040B Adapter: 0 ID: 1

Read mode : Secure
Utilize accurate stream : Yes
Defeat audio cache : Yes
Make use of C2 pointers : No

Read offset correction : 667
Overread into Lead-In and Lead-Out : No
Fill up missing offset samples with silence : Yes
Delete leading and trailing silent blocks : No
Null samples used in CRC calculations : Yes
Used interface : Native Win32 interface for Win NT & 2000
Gap handling : Appended to previous track

Used output format : User Defined Encoder
Selected bitrate : 1024 kBit/s
Quality : High
Add ID3 tag : No
Command line compressor : C:\Program Files\FLAC\flac.exe
Additional command line options : -8 -V -T “ARTIST=%a” -T “TITLE=%t” -T “ALBUM=%g” -T “DATE=%y” -T “TRACKNUMBER=%n” -T “GENRE=%m” -T “COMMENT=EAC FLAC -8” %s

TOC of the extracted CD

Track | Start | Length | Start sector | End sector
———————————————————
1 | 0:00.00 | 0:58.15 | 0 | 4364
2 | 0:58.15 | 2:17.57 | 4365 | 14696
3 | 3:15.72 | 5:01.43 | 14697 | 37314
4 | 8:17.40 | 3:04.30 | 37315 | 51144
5 | 11:21.70 | 2:11.10 | 51145 | 60979
6 | 13:33.05 | 2:16.52 | 60980 | 71231
7 | 15:49.57 | 4:30.70 | 71232 | 91551
8 | 20:20.52 | 5:58.43 | 91552 | 118444
9 | 26:19.20 | 4:09.02 | 118445 | 137121
10 | 30:28.22 | 0:54.28 | 137122 | 141199
11 | 31:22.50 | 2:01.10 | 141200 | 150284
12 | 33:23.60 | 3:02.15 | 150285 | 163949
13 | 36:26.00 | 0:45.70 | 163950 | 167394
14 | 37:11.70 | 2:56.30 | 167395 | 180624
15 | 40:08.25 | 2:48.47 | 180625 | 193271
16 | 42:56.72 | 2:21.60 | 193272 | 203906
17 | 45:18.57 | 0:04.18 | 203907 | 204224

Track 1

Filename D:\Lossless_Music\Die Arzte\01 – Studioalben\1996 – Le Frisur\01. Die Arzte – Erklarung.wav

Pre-gap length 0:00:02.00

Peak level 99.0 %
Track quality 99.8 %
Test CRC 19F346E7
Copy CRC 19F346E7
Accurately ripped (confidence 111) [48CA42C1]
Copy OK

Track 2

Filename D:\Lossless_Music\Die Arzte\01 – Studioalben\1996 – Le Frisur\02. Die Arzte – Mein Baby war beim Frisor.wav

Peak level 99.0 %
Track quality 100.0 %
Test CRC ACC784BB
Copy CRC ACC784BB
Accurately ripped (confidence 112) [FB3B600E]
Copy OK

Track 3

Filename D:\Lossless_Music\Die Arzte\01 – Studioalben\1996 – Le Frisur\03. Die Arzte – Vokuhila Superstar.wav

Pre-gap length 0:00:00.56

Peak level 99.1 %
Track quality 100.0 %
Test CRC DF981B32
Copy CRC DF981B32
Accurately ripped (confidence 110) [84114B46]
Copy OK

Track 4

Filename D:\Lossless_Music\Die Arzte\01 – Studioalben\1996 – Le Frisur\04. Die Arzte – 3-Tage-Bart.wav

Peak level 99.3 %
Track quality 100.0 %
Test CRC 79B81F09
Copy CRC 79B81F09
Accurately ripped (confidence 112) [97C1B2E9]
Copy OK

Track 5

Filename D:\Lossless_Music\Die Arzte\01 – Studioalben\1996 – Le Frisur\05. Die Arzte – No Future (Ohne neue Haarfrisur).wav

Peak level 99.0 %
Track quality 100.0 %
Test CRC D4553F44
Copy CRC D4553F44
Accurately ripped (confidence 111) [D6EC316E]
Copy OK

Track 6

Filename D:\Lossless_Music\Die Arzte\01 – Studioalben\1996 – Le Frisur\06. Die Arzte – Look, Don’t Touch.wav

Peak level 99.6 %
Track quality 100.0 %
Test CRC 41EB1506
Copy CRC 41EB1506
Accurately ripped (confidence 110) [EE1DA96D]
Copy OK

Track 7

Filename D:\Lossless_Music\Die Arzte\01 – Studioalben\1996 – Le Frisur\07. Die Arzte – Straight Outta Buckeburg.wav

Peak level 99.0 %
Track quality 100.0 %
Test CRC 2EF22C1D
Copy CRC 2EF22C1D
Accurately ripped (confidence 108) [603141E7]
Copy OK

Track 8

Filename D:\Lossless_Music\Die Arzte\01 – Studioalben\1996 – Le Frisur\08. Die Arzte – Medusa-Man (Serienmorder Ralf).wav

Pre-gap length 0:00:00.44

Peak level 99.0 %
Track quality 99.9 %
Test CRC FBE81099
Copy CRC FBE81099
Accurately ripped (confidence 107) [20D23ED4]
Copy OK

Track 9

Filename D:\Lossless_Music\Die Arzte\01 – Studioalben\1996 – Le Frisur\09. Die Arzte – Haar.wav

Peak level 99.4 %
Track quality 99.9 %
Test CRC 1417972D
Copy CRC 1417972D
Accurately ripped (confidence 109) [6632155A]
Copy OK

Track 10

Filename D:\Lossless_Music\Die Arzte\01 – Studioalben\1996 – Le Frisur\10. Die Arzte – Dauerwelle vs. Minipli.wav

Peak level 99.0 %
Track quality 100.0 %
Test CRC BA9D14A5
Copy CRC BA9D14A5
Accurately ripped (confidence 110) [519D1D20]
Copy OK

Track 11

Filename D:\Lossless_Music\Die Arzte\01 – Studioalben\1996 – Le Frisur\11. Die Arzte – Der Affro von Paul Breitner.wav

Peak level 99.0 %
Track quality 100.0 %
Test CRC 6C020BD6
Copy CRC 6C020BD6
Accurately ripped (confidence 110) [9F98CFBC]
Copy OK

Track 12

Filename D:\Lossless_Music\Die Arzte\01 – Studioalben\1996 – Le Frisur\12. Die Arzte – Motherfucker 666.wav

Pre-gap length 0:00:00.04

Peak level 100.0 %
Track quality 100.0 %
Test CRC 38C41B3A
Copy CRC 38C41B3A
Accurately ripped (confidence 109) [33D1F35F]
Copy OK

Track 13

Filename D:\Lossless_Music\Die Arzte\01 – Studioalben\1996 – Le Frisur\13. Die Arzte – Monika.wav

Peak level 99.0 %
Track quality 100.0 %
Test CRC EDE0CD21
Copy CRC EDE0CD21
Accurately ripped (confidence 108) [AFDAE3D2]
Copy OK

Track 14

Filename D:\Lossless_Music\Die Arzte\01 – Studioalben\1996 – Le Frisur\14. Die Arzte – Hair Today, Gone Tomorrow.wav

Peak level 99.0 %
Track quality 100.0 %
Test CRC 608CC152
Copy CRC 608CC152
Accurately ripped (confidence 106) [1A7E58C3]
Copy OK

Track 15

Filename D:\Lossless_Music\Die Arzte\01 – Studioalben\1996 – Le Frisur\15. Die Arzte – Am Ende meines Körpers.wav

Peak level 99.0 %
Track quality 100.0 %
Test CRC 4C2CCB65
Copy CRC 4C2CCB65
Accurately ripped (confidence 107) [DD2D564D]
Copy OK

Track 16

Filename D:\Lossless_Music\Die Arzte\01 – Studioalben\1996 – Le Frisur\16. Die Arzte – Kaperfahrt.wav

Pre-gap length 0:00:01.53

Peak level 99.0 %
Track quality 99.9 %
Test CRC 3F85565E
Copy CRC 3F85565E
Accurately ripped (confidence 108) [F3B456EE]
Copy OK

Track 17

Filename D:\Lossless_Music\Die Arzte\01 – Studioalben\1996 – Le Frisur\17. Die Arzte – Zusammenfassung.wav

Peak level 73.7 %
Track quality 100.0 %
Test CRC FC7A6A72
Copy CRC FC7A6A72
Track not present in AccurateRip database
Copy OK

16 track(s) accurately ripped
1 track(s) not present in the AccurateRip database

Some tracks could not be verified as accurate

No errors occurred

End of status report

—————————————-

REM GENRE “Punk Rock”
REM DATE 1996
REM DISCID E00AA311
REM COMMENT “ExactAudioCopy v0.99pb5”
PERFORMER “Die Arzte”
TITLE “Le Frisur”
FILE “01. Die Arzte – Erklarung.wav” WAVE
TRACK 01 AUDIO
TITLE “Erklarung”
PERFORMER “Die Arzte”
INDEX 01 00:00:00
FILE “02. Die Arzte – Mein Baby war beim Frisor.wav” WAVE
TRACK 02 AUDIO
TITLE “Mein Baby war beim Frisor”
PERFORMER “Die Arzte”
INDEX 01 00:00:00
TRACK 03 AUDIO
TITLE “Vokuhila Superstar”
PERFORMER “Die Arzte”
INDEX 00 02:17:15
FILE “03. Die Arzte – Vokuhila Superstar.wav” WAVE
INDEX 01 00:00:00
FILE “04. Die Arzte – 3-Tage-Bart.wav” WAVE
TRACK 04 AUDIO
TITLE “3-Tage-Bart”
PERFORMER “Die Arzte”
INDEX 01 00:00:00
FILE “05. Die Arzte – No Future (Ohne neue Haarfrisur).wav” WAVE
TRACK 05 AUDIO
TITLE “No Future (Ohne neue Haarfrisur)”
PERFORMER “Die Arzte”
INDEX 01 00:00:00
FILE “06. Die Arzte – Look, Don’t Touch.wav” WAVE
TRACK 06 AUDIO
TITLE “Look, Don’t Touch”
PERFORMER “Die Arzte”
INDEX 01 00:00:00
FILE “07. Die Arzte – Straight Outta Buckeburg.wav” WAVE
TRACK 07 AUDIO
TITLE “Straight Outta Buckeburg”
PERFORMER “Die Arzte”
INDEX 01 00:00:00
TRACK 08 AUDIO
TITLE “Medusa-Man (Serienmorder Ralf)”
PERFORMER “Die Arzte”
INDEX 00 04:30:37
FILE “08. Die Arzte – Medusa-Man (Serienmorder Ralf).wav” WAVE
INDEX 01 00:00:00
FILE “09. Die Arzte – Haar.wav” WAVE
TRACK 09 AUDIO
TITLE “Haar”
PERFORMER “Die Arzte”
INDEX 01 00:00:00
FILE “10. Die Arzte – Dauerwelle vs. Minipli.wav” WAVE
TRACK 10 AUDIO
TITLE “Dauerwelle vs. Minipli”
PERFORMER “Die Arzte”
INDEX 01 00:00:00
FILE “11. Die Arzte – Der Affro von Paul Breitner.wav” WAVE
TRACK 11 AUDIO
TITLE “Der Affro von Paul Breitner”
PERFORMER “Die Arzte”
INDEX 01 00:00:00
TRACK 12 AUDIO
TITLE “Motherfucker 666”
PERFORMER “Die Arzte”
INDEX 00 02:01:07
FILE “12. Die Arzte – Motherfucker 666.wav” WAVE
INDEX 01 00:00:00
FILE “13. Die Arzte – Monika.wav” WAVE
TRACK 13 AUDIO
TITLE “Monika”
PERFORMER “Die Arzte”
INDEX 01 00:00:00
FILE “14. Die Arzte – Hair Today, Gone Tomorrow.wav” WAVE
TRACK 14 AUDIO
TITLE “Hair Today, Gone Tomorrow”
PERFORMER “Die Arzte”
INDEX 01 00:00:00
FILE “15. Die Arzte – Am Ende meines Körpers.wav” WAVE
TRACK 15 AUDIO
TITLE “Am Ende meines Körpers”
PERFORMER “Die Arzte”
INDEX 01 00:00:00
TRACK 16 AUDIO
TITLE “Kaperfahrt”
PERFORMER “Die Arzte”
INDEX 00 02:47:07
FILE “16. Die Arzte – Kaperfahrt.wav” WAVE
INDEX 01 00:00:00
FILE “17. Die Arzte – Zusammenfassung.wav” WAVE
TRACK 17 AUDIO
TITLE “Zusammenfassung”
PERFORMER “Die Arzte”
INDEX 01 00:00:00


Leave a Reply

Your email address will not be published. Required fields are marked *

This site uses Akismet to reduce spam. Learn how your comment data is processed.