Die Ärzte – Komm Zurück / Die Banane (Unplugged)




Artist: Die Ärzte
Year: 2002
Genre: Punk
Notes: Discogs
Add. Notes:
Cover incl.: Yes
Encoder: FLAC
Bitrate: ~1000 kBit/s (44.1 kHz/16 Bit/s)
Log & Cue incl.: Yes
Size: 138,6 MB
Password: “slam” (without ” “)


All Downloads/Hosters are compatible

Download 1
KatFile.com
Turbobit.net
FileFactory.com
Rapidgator.net
Download 2
KatFile.com
Turbobit.net
FileFactory.com
Rapidgator.net

Tracklist:

1 Komm Zurück 3:29
2 Die Banane 4:59
3 Ist Das Alles? 4:12
4 Sommer, Palmen, Sonnenschein 2:42
5 3-Tage-Bart 3:24

EAC-Log, CUE-Sheed & NFO:

Click to open spoiler
Exact Audio Copy V0.99 prebeta 4 from 23. January 2008

EAC extraction logfile from 25. March 2009, 10:02

Die Ärzte / Komm zurück/Die Banane (MTV Unplugged)

Used drive : ATAPI DVD DD 2X16X4X16 Adapter: 1 ID: 1

Read mode : Secure
Utilize accurate stream : Yes
Defeat audio cache : Yes
Make use of C2 pointers : No

Read offset correction : 618
Overread into Lead-In and Lead-Out : No
Fill up missing offset samples with silence : Yes
Delete leading and trailing silent blocks : No
Null samples used in CRC calculations : Yes
Used interface : Native Win32 interface for Win NT & 2000
Gap handling : Appended to previous track

Used output format : Internal WAV Routines
Sample format : 44.100 Hz; 16 Bit; Stereo

TOC of the extracted CD

Track | Start | Length | Start sector | End sector
———————————————————
1 | 0:00.00 | 3:32.29 | 0 | 15928
2 | 3:32.29 | 5:02.37 | 15929 | 38615
3 | 8:34.66 | 4:15.73 | 38616 | 57813
4 | 12:50.64 | 2:45.50 | 57814 | 70238
5 | 15:36.39 | 3:25.00 | 70239 | 85613

Track 1

Filename D:\Die Aerzte – Komm zurueck & Die Banane (Unplugged) (CDS) (2002) [FLAC]\01 – Komm zurück (unplugged).wav

Pre-gap length 0:00:02.00

Peak level 100.0 %
Track quality 100.0 %
Test CRC EDEA78E3
Copy CRC EDEA78E3
Accurately ripped (confidence 6) [950BDBC4]
Copy OK

Track 2

Filename D:\Die Aerzte – Komm zurueck & Die Banane (Unplugged) (CDS) (2002) [FLAC]\02 – Die Banane (unplugged).wav

Pre-gap length 0:00:03.00

Peak level 100.0 %
Track quality 99.9 %
Test CRC 533441F1
Copy CRC 533441F1
Accurately ripped (confidence 5) [731B2B0B]
Copy OK

Track 3

Filename D:\Die Aerzte – Komm zurueck & Die Banane (Unplugged) (CDS) (2002) [FLAC]\03 – Ist das alles (unplugged).wav

Pre-gap length 0:00:03.00

Peak level 100.0 %
Track quality 100.0 %
Test CRC FF2DA82E
Copy CRC FF2DA82E
Accurately ripped (confidence 5) [35E3FE75]
Copy OK

Track 4

Filename D:\Die Aerzte – Komm zurueck & Die Banane (Unplugged) (CDS) (2002) [FLAC]\04 – Sommer, Palmen, Sonnenschein (unplugged).wav

Pre-gap length 0:00:03.00

Peak level 100.0 %
Track quality 100.0 %
Test CRC F893746E
Copy CRC F893746E
Accurately ripped (confidence 5) [86DF7BDC]
Copy OK

Track 5

Filename D:\Die Aerzte – Komm zurueck & Die Banane (Unplugged) (CDS) (2002) [FLAC]\05 – 3-Tage-Bart (unplugged).wav

Pre-gap length 0:00:03.00

Peak level 100.0 %
Track quality 100.0 %
Test CRC 285F3F5C
Copy CRC 285F3F5C
Accurately ripped (confidence 5) [0CBEED43]
Copy OK

All tracks accurately ripped

No errors occurred

End of status report
REM GENRE “Punk Rock”
REM DATE 2002
REM DISCID 39047505
REM COMMENT “ExactAudioCopy v0.99pb4”
FILE “01 – Komm zuruck (unplugged).flac” WAVE
TRACK 01 AUDIO
INDEX 01 00:00:00
TRACK 02 AUDIO
FLAGS DCP
INDEX 00 03:29:29
FILE “02 – Die Banane (unplugged).flac” WAVE
INDEX 01 00:00:00
TRACK 03 AUDIO
FLAGS DCP
INDEX 00 04:59:37
FILE “03 – Ist das alles (unplugged).flac” WAVE
INDEX 01 00:00:00
TRACK 04 AUDIO
FLAGS DCP
INDEX 00 04:12:73
FILE “04 – Sommer, Palmen, Sonnenschein (unplugged).flac” WAVE
INDEX 01 00:00:00
TRACK 05 AUDIO
FLAGS DCP
INDEX 00 02:42:50
FILE “05 – 3-Tage-Bart (unplugged).flac” WAVE
INDEX 01 00:00:00


Leave a Reply

Your email address will not be published. Required fields are marked *

This site uses Akismet to reduce spam. Learn how your comment data is processed.